Торрент файл
скачать торрент магнет ссылка Добавлен: 14 янв 2012, 22:41
Размер: 1.46 ГБ
Сидеров: 2
Личеров: 6
Автор

СообщениеДобавлено: 14 янв 2012, 22:41 

Не в сети
Супермодератор
Аватара пользователя
Дата регистрации:
11 апр 2010, 18:10
Спасибо: 5960 / 7
Сообщения: 56765
Призраки Миссисипи / Ghosts of Mississippi


Перевод: Профессиональный (многоголосый, закадровый), cубтитры: отсутствуют
Формат: DVDRip-AVC, MKV, H.264, AC3
Страна: США
Режиссер: Роб Райнер
Жанр: драма
Продолжительность: 02:10:43
Год выпуска: 1996

В ролях: Алек Болдуин, Джеймс Вудс, Вирджиния Мэдсен, Вупи Голдберг, Сузанна Томпсон, Крэйг Т. Нельсон, Лукас Блэк, Джозеф Телло, Алекса Вега, Уильям Х. Мэйси

Описание: Талантливый юрист берется за дело 25-летней давности. Расист застрелил негра — борца за гражданские права цветных, тогда, несмотря на неопровержимые улики, суд белых присяжных дважды отпускал его на свободу. Спустя четверть века вдова требует возобновления процесса.

Все материалы, показания свидетелей и улики (в том числе и винтовка Вудса) пропали. Зять судьи, вынесшего в свое время оправдательный вердикт убийце, делает выбор: объединив усилия со следователем, он берется за это труднейшее политическое дело…




Видео: 704 x 384 (1:85:1), 23.976 fps, AVC, х264, High@L4.1, ~ 1400 Kbps, 0.216 bit/pixel
Аудио: 48 kHz, AC3 Dolby Digital, 2/0 (L,R) ch, ~192 kbps


Рип: jeenart

General
Unique ID: 202280167133347430072892755249597017760 (0x982DBE3C0C9324B08869A82BEB786EA0)
Complete name: F:\Мои релизы\Все релизы 10\ghosts_of_mississippi_[tfile.ru].mkv
Format: Matroska
File size: 1.46 GiB
Duration: 2h 10mn
Overall bit rate: 1 594 Kbps
Encoded date: UTC 2011-07-22 09:45:35
Writing application: mkvmerge v4.6.0 ('Still Crazy After All These Years') сборка от Apr1 2011 21:01:49
Writing library: libebml v1.2.0 + libmatroska v1.1.0

Video
ID: 1
Format: AVC
Format/Info: Advanced Video Codec
Format profile: High@L4.1
Format settings, CABAC: Yes
Format settings, ReFrames: 8 frames
Format settings, GOP: M=1, N=32
Codec ID: V_MPEG4/ISO/AVC
Duration: 2h 10mn
Bit rate: 1 400 Kbps
Width: 704 pixels
Height: 384 pixels
Display aspect ratio: 16:9
Frame rate: 23.976 fps
Color space: YUV
Chroma subsampling: 4:2:0
Bit depth: 8 bits
Scan type: Progressive
Bits/(Pixel*Frame): 0.216
Stream size: 1.25 GiB (86%)
Writing library: x264 core 115 r1937 aa21558
Encoding settings: cabac=1 / ref=8 / deblock=1:-1:-1 / analyse=0x3:0x133 / me=umh / subme=9 / psy=1 / psy_rd=1.00:0.10 / mixed_ref=1 / me_range=16 / chroma_me=1 / trellis=2 / 8x8dct=1 / cqm=0 / deadzone=21,11 / fast_pskip=1 / chroma_qp_offset=-3 / threads=6 / sliced_threads=0 / nr=0 / decimate=1 / interlaced=0 / bluray_compat=0 / constrained_intra=0 / bframes=3 / b_pyramid=2 / b_adapt=2 / b_bias=0 / direct=3 / weightb=1 / open_gop=0 / weightp=2 / keyint=250 / keyint_min=23 / scenecut=40 / intra_refresh=0 / rc_lookahead=60 / rc=2pass / mbtree=1 / bitrate=1400 / ratetol=1.0 / qcomp=0.60 / qpmin=0 / qpmax=69 / qpstep=4 / cplxblur=20.0 / qblur=0.5 / ip_ratio=1.40 / aq=1:1.00

Audio
ID: 2
Format: AC-3
Format/Info: Audio Coding 3
Mode extension: CM (complete main)
Codec ID: A_AC3
Duration: 2h 10mn
Bit rate mode: Constant
Bit rate: 192 Kbps
Channel(s): 2 channels
Channel positions: Front: L R
Sampling rate: 48.0 KHz
Bit depth: 16 bits
Compression mode: Lossy
Stream size: 180 MiB (12%)






















Поделиться:




реклама партнёра


Вернуться к началу
 Профиль Отправить личное сообщение  
 
   Похожие торренты   Автор   Торрент   Размер 
В этой теме нет новых непрочитанных сообщений. Призраки Миссисипи / Ghosts of Mississippi [Драма, криминал, 1996] WEB-DL 720p, Mvo+Avo+Sub

salma3

65 | 7

4.1 ГБ

В этой теме нет новых непрочитанных сообщений. Прогулка по Миссисипи / Mississippi Grind [Драма, 2015] HDRip, mvo

Dracon

106 | 2

1.4 ГБ

В этой теме нет новых непрочитанных сообщений. Акулы в Миссисипи / Mississippi River Sharks [Фантастика, 2017] HDTVRip, Mvo

salma3

605 | 213

1.37 ГБ

В этой теме нет новых непрочитанных сообщений. Убийство в Миссисипи / Mississippi Murder [триллер, криминал, детектив, 2017] WEB-DLRip, Mvo

salma3

387 | 132

1.36 ГБ

В этой теме нет новых непрочитанных сообщений. Призраки тьмы / Ghosts of Darkness [ужасы, 2017] WEB-DLRip, Mvo

salma3

389 | 187

1.33 ГБ

В этой теме нет новых непрочитанных сообщений. Призраки Марса / Ghosts of Mars [Ужасы, фантастика, боевик, 2001] BDRip-AVC, Mvo+Avo+Sub

salma3

35 | 1

2.91 ГБ

В этой теме нет новых непрочитанных сообщений. Call of Duty: Ghosts - Ghosts Deluxe Edition [Update 20] [Action, 3D, 1st Person, 2013] [Rip]

salma3

3 | 7

28.99 ГБ


Начать новую тему Ответить на тему  [ 1 сообщение ] 




Для Мосгорсуда, Роскомнадзора и рекламодателей:: mosgorsud-torrent[собачка]yandex.ru