Торрент файл
скачать торрент магнет ссылка Добавлен: 14 янв 2012, 22:41
Размер: 1.45 ГБ
Сидеров: 19
Личеров: 4
Автор

СообщениеДобавлено: 14 янв 2012, 22:41 

Не в сети
Супермодератор
Аватара пользователя
Дата регистрации:
11 апр 2010, 18:10
Спасибо: 5802 / 7
Сообщения: 56779
Социальная сеть / The Social Network

«Нельзя завести 500 миллионов друзей, не нажив ни одного врага.»

Перевод: Профессиональный (полное дублирование)
Субтитры:отсутствуют
Формат: HDRip, MKV, H.264, AC3

Страна: США
Режиссер: Дэвид Финчер
Жанр: драма, биография

Продолжительность: 02:00:27
Год выпуска: 2010

В ролях: Джесси Айзенберг, Эндрю Гарфилд, Джастин Тимберлэйк, Арми Хаммер, Макс Мингелла, Руни Мара, Брайан Бартер, Бренда Сонг, Дастин Фицсаймонс, Джозеф Маццелло

Описание: В фильме рассказывается история создания одной из самых популярных в Интернете социальных сетей — Facebook. Оглушительный успех этой сети среди пользователей по всему миру навсегда изменил жизнь студентов-однокурсников гарвардского университета, которые основали ее в 2004 году и за несколько лет стали самыми молодыми мультимиллионерами в США







Видео: 720x296 (2.40:1), 23.976 fps, AVC(x264) High@L4.1 ~1 340 kbps avg, 0.262 bit/pixel
Аудио: 48 kHz, AC3, 6 ch, ~384 kbps avg

Рип от:TswetkOFF
Релиз-Группа:




General
Unique ID: 194864887748207016520165262286743764711 (0x92999CBBEADEDB8C8BCDA31554417EE7)
Complete name: D:\Films\socialnaya_set_[tfile.ru].mkv
Format: Matroska
File size: 1.45 GiB
Duration: 2h 0mn
Overall bit rate: 1 724 Kbps
Encoded date: UTC 2011-07-30 20:44:05
Writing application: mkvmerge v4.6.0 ('Still Crazy After All These Years') сборка от Apr1 2011 21:01:49
Writing library: libebml v1.2.0 + libmatroska v1.1.0

Video
ID: 1
Format: AVC
Format/Info: Advanced Video Codec
Format profile: High@L4.1
Format settings, CABAC: Yes
Format settings, ReFrames: 4 frames
Codec ID: V_MPEG4/ISO/AVC
Duration: 2h 0mn
Bit rate: 1 340 Kbps
Width: 720 pixels
Height: 296 pixels
Display aspect ratio: 2.40:1
Frame rate: 23.976 fps
Color space: YUV
Chroma subsampling: 4:2:0
Bit depth: 8 bits
Scan type: Progressive
Bits/(Pixel*Frame): 0.262
Stream size: 1.10 GiB (76%)
Writing library: x264 core 115 r1937 aa21558
Encoding settings: cabac=1 / ref=2 / deblock=1:-1:-1 / analyse=0x3:0x113 / me=hex / subme=6 / psy=1 / psy_rd=1.00:0.20 / mixed_ref=1 / me_range=16 / chroma_me=1 / trellis=1 / 8x8dct=1 / cqm=0 / deadzone=21,11 / fast_pskip=1 / chroma_qp_offset=-3 / threads=3 / sliced_threads=0 / nr=0 / decimate=0 / interlaced=0 / bluray_compat=0 / constrained_intra=0 / bframes=3 / b_pyramid=2 / b_adapt=1 / b_bias=0 / direct=1 / weightb=1 / open_gop=0 / weightp=1 / keyint=250 / keyint_min=23 / scenecut=40 / intra_refresh=0 / rc_lookahead=30 / rc=2pass / mbtree=1 / bitrate=1340 / ratetol=1.0 / qcomp=0.60 / qpmin=0 / qpmax=69 / qpstep=4 / cplxblur=20.0 / qblur=0.5 / ip_ratio=1.40 / aq=1:1.00

Audio
ID: 2
Format: AC-3
Format/Info: Audio Coding 3
Mode extension: CM (complete main)
Codec ID: A_AC3
Duration: 2h 0mn
Bit rate mode: Constant
Bit rate: 384 Kbps
Channel(s): 6 channels
Channel positions: Front: L C R, Side: L R, LFE
Sampling rate: 48.0 KHz
Bit depth: 16 bits
Compression mode: Lossy
Stream size: 331 MiB (22%)















Поделиться:




реклама партнёра


Вернуться к началу
 Профиль Отправить личное сообщение  
 
   Похожие торренты   Автор   Торрент   Размер 
В этой теме нет новых непрочитанных сообщений. Бродяга / Ragamuffin (Дэвид Шульц) [2014, драма, биография, HDRip | ИндивИдуалист] avo

Nickolas3435

34 | 4

1.44 ГБ

В этой теме нет новых непрочитанных сообщений. Social 66 - Social 66 [2014, Hard Rock, MP3]

PriZraK

0 | 1

94.55 МБ

В этой теме нет новых непрочитанных сообщений. Карточный Домик / House of Cards [03х01-06 из 13] (Джеймс Фоули, Дэвид Финчер, Карл Франклин) [2015, драма, WEBRip | ColdFilm]

Nickolas3435

18 | 6

2.11 ГБ

В этой теме нет новых непрочитанных сообщений. Карточный Домик / House of Cards [03х01-06 из 13] (Джеймс Фоули, Дэвид Финчер, Карл Франклин) [2015, драма, WEBRip 720p | ColdFilm]

Nickolas3435

32 | 10

5.26 ГБ

В этой теме нет новых непрочитанных сообщений. Карточный Домик / House of Cards [Season 3, episode 1-13] (Джеймс Фоули, Дэвид Финчер, Карл Франклин) [драма, 2015] WEBRip, Mvo+Sub [Первый канал]

Dracon

913 | 282

7.34 ГБ

В этой теме нет новых непрочитанных сообщений. Карточный домик / House of Cards [03x01-13 из 13] (Джеймс Фоули, Дэвид Финчер, Карл Франклин) [драма, 2015] WEBRip 1080p, Mvo+Sub [Первый канал]

Dracon

365 | 124

33.04 ГБ

В этой теме нет новых непрочитанных сообщений. Карточный Домик / House of Cards [Season 3, episode 1-13] (Джеймс Фоули, Дэвид Финчер, Карл Франклин) [драма, 2015] WEBRip 720p, Mvo+Sub [Первый канал]

Dracon

924 | 200

14.45 ГБ


Начать новую тему Ответить на тему  [ 1 сообщение ] 




Для Мосгорсуда, Роскомнадзора и рекламодателей:: mosgorsud-torrent[собачка]yandex.ru