Торрент файл
скачать торрент магнет ссылка Добавлен: 14 янв 2012, 22:40
Размер: 1.45 ГБ
Сидеров: 46
Личеров: 9
Автор

СообщениеДобавлено: 14 янв 2012, 22:40 

Не в сети
Супермодератор
Аватара пользователя
Дата регистрации:
11 апр 2010, 18:10
Спасибо: 5798 / 7
Сообщения: 56779
Монте-Карло / Monte Carlo


Перевод: Профессиональный (полное дублирование), cубтитры: отсутствуют
Формат: DVDRip-AVC, MKV, H.264, AC3
Страна: США, Венгрия
Режиссер: Томас Безуча
Жанр: мелодрама, комедия, приключения
Продолжительность: 01:44:19
Год выпуска: 2011

В ролях: Селена Гомес, Кэти Кэссиди, Лейтон Мистер, Кори Монтейт, Энди МакДауэлл, Бретт Каллен, Аманда Фейрбэнк-Хайнс, Джо Кэмп, Люк Брейси. Валери Лемерсье

Описание: Под занавес своего долгожданного, но неудавшегося путешествия в Париж три девушки от скуки заходят в пятизвездочный отель, и их жизнь совершает головокружительный поворот: одну из них принимают за избалованную англичанку, наследницу огромного состояния. И вот тыква превращается в карету, скромное платьице — в шикарный наряд, Золушка — в принцессу, а Париж — в Монте-Карло с вездесущими папарацци, частными самолетами, и незабываемой романтикой.



Видео: 1024 x 552 (1:85:1), 25.000 fps, AVC, х264, High@L4.1, ~ 1610 Kbps, 0.114 bit/pixel
Аудио: 48 kHz, AC3 Dolby Digital, 3/2 (L,C,R,l,r) + LFE ch, ~384 kbps


Рип: jeenart

General
Unique ID: 252536723433968000179662926366106106069 (0xBDFCCDC3FEA4305F8275D6727EEAB8D5)
Complete name: F:\Мои релизы\Все релизы 10\monte_carlo_[tfile.ru].mkv
Format: Matroska
File size: 1.45 GiB
Duration: 1h 44mn
Overall bit rate: 1 995 Kbps
Encoded date: UTC 2011-08-03 03:35:25
Writing application: mkvmerge v4.6.0 ('Still Crazy After All These Years') сборка от Apr1 2011 21:01:49
Writing library: libebml v1.2.0 + libmatroska v1.1.0

Video
ID: 1
Format: AVC
Format/Info: Advanced Video Codec
Format profile: High@L4.1
Format settings, CABAC: Yes
Format settings, ReFrames: 8 frames
Codec ID: V_MPEG4/ISO/AVC
Duration: 1h 44mn
Bit rate: 1 610 Kbps
Width: 1 024 pixels
Height: 552 pixels
Display aspect ratio: 1.855
Frame rate: 25.000 fps
Color space: YUV
Chroma subsampling: 4:2:0
Bit depth: 8 bits
Scan type: Progressive
Bits/(Pixel*Frame): 0.114
Stream size: 1.14 GiB (79%)
Writing library: x264 core 115 r1937 aa21558
Encoding settings: cabac=1 / ref=8 / deblock=1:-1:-1 / analyse=0x3:0x133 / me=umh / subme=9 / psy=1 / psy_rd=1.00:0.10 / mixed_ref=1 / me_range=16 / chroma_me=1 / trellis=2 / 8x8dct=1 / cqm=0 / deadzone=21,11 / fast_pskip=1 / chroma_qp_offset=-3 / threads=6 / sliced_threads=0 / nr=0 / decimate=1 / interlaced=0 / bluray_compat=0 / constrained_intra=0 / bframes=3 / b_pyramid=2 / b_adapt=2 / b_bias=0 / direct=3 / weightb=1 / open_gop=0 / weightp=2 / keyint=250 / keyint_min=25 / scenecut=40 / intra_refresh=0 / rc_lookahead=60 / rc=2pass / mbtree=1 / bitrate=1610 / ratetol=1.0 / qcomp=0.60 / qpmin=0 / qpmax=69 / qpstep=4 / cplxblur=20.0 / qblur=0.5 / ip_ratio=1.40 / aq=1:1.00

Audio
ID: 2
Format: AC-3
Format/Info: Audio Coding 3
Mode extension: CM (complete main)
Codec ID: A_AC3
Duration: 1h 44mn
Bit rate mode: Constant
Bit rate: 384 Kbps
Channel(s): 6 channels
Channel positions: Front: L C R, Side: L R, LFE
Sampling rate: 48.0 KHz
Bit depth: 16 bits
Compression mode: Lossy
Stream size: 287 MiB (19%)
























Поделиться:




реклама партнёра


Вернуться к началу
 Профиль Отправить личное сообщение  
 
   Похожие торренты   Автор   Торрент   Размер 
В этой теме нет новых непрочитанных сообщений. Секрет Монте-Кристо / The Treasure of Monte Cristo [приключения, 1961] DVDRip, Mvo

salma3

101 | 48

1.46 ГБ

В этой теме нет новых непрочитанных сообщений. Я не говорю по-английски / Io no spik inglish (Карло Ванцина / Carlo Vanzina) [1995г., комедия, DVDRip] MVO

Alfredovich

9 | 3

1.33 ГБ

В этой теме нет новых непрочитанных сообщений. Врожденный порок /  Inherent Vice (Пол Томас Андерсон) [Драма, Мелодрама, Комедия, Детектив, Криминал, 2014] WEB-DLRip, dvo

Dracon

8 | 3

1.47 ГБ

В этой теме нет новых непрочитанных сообщений. Врожденный порок / Inherent Vice (Пол Томас Андерсон) [Драма, Мелодрама, Комедия, Детектив, Криминал, 2014] WEB-DLRip 720p, dvo

Dracon

7 | 2

4.95 ГБ

В этой теме нет новых непрочитанных сообщений. Врожденный порок / Inherent Vice (Пол Томас Андерсон) [Драма, Мелодрама, Комедия, Детектив, Криминал, 2014] HDRip, Mvo [ЛИЦЕНЗИЯ]

Dracon

12 | 2

1.37 ГБ

В этой теме нет новых непрочитанных сообщений. Врожденный порок / Inherent Vice (Пол Томас Андерсон) [Драма, Мелодрама, Комедия, Детектив, Криминал, 2014] BDRip 1080p, Mvo [ЛИЦЕНЗИЯ]

Dracon

207 | 4

11.32 ГБ

В этой теме нет новых непрочитанных сообщений. Врожденный порок / Inherent Vice (Пол Томас Андерсон) [Драма, Мелодрама, Комедия, Детектив, Криминал, 2014] BDRip 720p, Mvo [ЛИЦЕНЗИЯ]

Dracon

280 | 6

6.95 ГБ


Начать новую тему Ответить на тему  [ 1 сообщение ] 




Для Мосгорсуда, Роскомнадзора и рекламодателей:: mosgorsud-torrent[собачка]yandex.ru