Торрент файл
скачать торрент магнет ссылка Добавлен: 14 янв 2012, 22:39
Размер: 2.05 ГБ
Сидеров: 76
Личеров: 5
Автор

СообщениеДобавлено: 14 янв 2012, 22:39 

Не в сети
Супермодератор
Аватара пользователя
Дата регистрации:
11 апр 2010, 18:10
Спасибо: 5960 / 7
Сообщения: 56765
Монте-Карло / Monte Carlo

Перевод: Профессиональный (полное дублирование)[Лицензия], cубтитры: отсутствуют

Формат: DVDRip, AVI, XviD, AC3

Страна: США, Венгрия

Режиссер: Томас Безуча

Жанр: мелодрама, комедия, приключения

Продолжительность: 01:43:48

Год выпуска: 2011

В ролях: Селена Гомес, Кэти Кэссиди, Лейтон Мистер, Кори Монтейт, Энди МакДауэлл, Бретт Каллен, Аманда Фейрбэнк-Хайнс, Джо Кэмп, Люк Брейси. Валери Лемерсье

Описание: Под занавес своего долгожданного, но неудавшегося путешествия в Париж три девушки от скуки заходят в пятизвездочный отель, и их жизнь совершает головокружительный поворот: одну из них принимают за избалованную англичанку, наследницу огромного состояния. И вот тыква превращается в карету, скромное платьице — в шикарный наряд, Золушка — в принцессу, а Париж — в Монте-Карло с вездесущими папарацци, частными самолетами, и незабываемой романтикой.

[/field]

Видео:720x384 (1.88:1), 25 fps, XviD MPEG-4 ~2326 kbps avg, 0.35 bit/pixel
Аудио: 48 kHz, AC3 Dolby Digital, 3/2 (L,C,R,l,r) + LFE ch, ~384.00 kbps avg

General
Complete name: E:\Загрузки\Monte.Carlo.2011.D.DVDRip.2100MB.avi
Format: AVI
Format/Info: Audio Video Interleave
Format profile: OpenDML
File size: 2.05 GiB
Duration: 1h 44mn
Overall bit rate: 2 717 Kbps
Writing application: VirtualDubMod 1.5.4.1 (build 2178/release)
Writing library: VirtualDubMod build 2178/release

Video
ID: 0
Format: MPEG-4 Visual
Format profile: Advanced Simple@L5
Format settings, BVOP: No
Format settings, QPel: No
Format settings, GMC: No warppoints
Format settings, Matrix: Custom
Codec ID: XVID
Codec ID/Hint: XviD
Duration: 1h 44mn
Bit rate: 2 324 Kbps
Width: 720 pixels
Height: 384 pixels
Display aspect ratio: 1.875
Frame rate: 25.000 fps
Color space: YUV
Chroma subsampling: 4:2:0
Bit depth: 8 bits
Scan type: Progressive
Compression mode: Lossy
Bits/(Pixel*Frame): 0.351
Stream size: 1.77 GiB (86%)
Writing library: XviD 1.2.1 (UTC 2008-12-04)

Audio
ID: 1
Format: AC-3
Format/Info: Audio Coding 3
Mode extension: CM (complete main)
Codec ID: 2000
Duration: 1h 44mn
Bit rate mode: Constant
Bit rate: 384 Kbps
Channel(s): 6 channels
Channel positions: Front: L C R, Side: L R, LFE
Sampling rate: 48.0 KHz
Bit depth: 16 bits
Compression mode: Lossy
Delay relative to video: 80ms
Stream size: 287 MiB (14%)
Alignment: Split accross interleaves
Interleave, duration: 96 ms (2.40 video frames)
Interleave, preload duration: 96 ms
Language: Russian

















Поделиться:




реклама партнёра


Вернуться к началу
 Профиль Отправить личное сообщение  
 
   Похожие торренты   Автор   Торрент   Размер 
В этой теме нет новых непрочитанных сообщений. Под знаком Монте-Кристо / Sous le signe de Monte-Cristo [приключения, 1968] SATRip, Mvo

salma3

61 | 12

1.36 ГБ

В этой теме нет новых непрочитанных сообщений. Врожденный порок /  Inherent Vice (Пол Томас Андерсон) [Драма, Мелодрама, Комедия, Детектив, Криминал, 2014] WEB-DLRip, dvo

Dracon

8 | 3

1.47 ГБ

В этой теме нет новых непрочитанных сообщений. Врожденный порок / Inherent Vice (Пол Томас Андерсон) [Драма, Мелодрама, Комедия, Детектив, Криминал, 2014] WEB-DLRip 720p, dvo

Dracon

7 | 3

4.95 ГБ

В этой теме нет новых непрочитанных сообщений. Врожденный порок / Inherent Vice (Пол Томас Андерсон) [Драма, Мелодрама, Комедия, Детектив, Криминал, 2014] HDRip, Mvo [ЛИЦЕНЗИЯ]

Dracon

12 | 2

1.37 ГБ

В этой теме нет новых непрочитанных сообщений. Врожденный порок / Inherent Vice (Пол Томас Андерсон) [Драма, Мелодрама, Комедия, Детектив, Криминал, 2014] BDRip 720p, Mvo [ЛИЦЕНЗИЯ]

Dracon

280 | 6

6.95 ГБ

В этой теме нет новых непрочитанных сообщений. Врожденный порок / Inherent Vice (Пол Томас Андерсон) [Драма, Мелодрама, Комедия, Детектив, Криминал, 2014] BDRip 1080p, Mvo [ЛИЦЕНЗИЯ]

Dracon

207 | 4

11.32 ГБ

В этой теме нет новых непрочитанных сообщений. Риф Донована / Donovan's Reef [Мелодрама, Комедия, Приключения, 1963] DVDRip-AVC, Mvo

salma3

60 | 7

1.86 ГБ


Начать новую тему Ответить на тему  [ 1 сообщение ] 




Для Мосгорсуда, Роскомнадзора и рекламодателей:: mosgorsud-torrent[собачка]yandex.ru