Торрент файл
скачать торрент магнет ссылка Добавлен: 14 янв 2012, 22:39
Размер: 1.46 ГБ
Сидеров: 1
Личеров: 4
Автор

СообщениеДобавлено: 14 янв 2012, 22:39 

Не в сети
Супермодератор
Аватара пользователя
Дата регистрации:
11 апр 2010, 18:10
Спасибо: 5963 / 7
Сообщения: 56762


[b]Хэшер / Hesher[/b]


Перевод: любительский одноголосый [den904]
Субтитры: отсутствуют
Формат: HDRip-AVC, MKV, H.264, MP3

Страна: США
Режиссер: Спенсер Сассер
Жанр: драма

Продолжительность: 01:45:36
Год выпуска: 2010

В ролях: Натали Портман, Джозеф Гордон-Левитт, Рэйн Уилсон, Джон Кэрролл Линч, Пайпер Лори, Фрэнк Коллисон, Одри Василевски, Девин Брошу, Аллан Граф, Моника Стэггс

Описание: Хэшер — одиночка. Он ненавидит мир и всех, кто в нем живет. Он ходит с давно не мытыми волосами и самодельными татуировками, которые украшают его тело. Он плохо питается и курит много сигарет. Он любит огонь и часто поджигает им различные предметы. Он мирно жил в своем фургоне до того момента, когда встретил Ти Джея…



Видео: 1280x720 (1.78:1), 24.000 fps, AVC (x264), High@L5.1, ~1850 kbps avg, 0.084 bit/pixel

Аудио: 44.100 kHz, MPEG Layer 3, 2 ch, ~128.00 kbps avg

Перевод содержит ненормативную лексику!

Общее
Уникальный идентификатор: 245689815647018941911353420573890056930 (0xB8D62325FF8D9263A06AB3671C0412E2)
Полное имя: D:\hesher_[tfile.ru].mkv
Формат: Matroska
Размер файла: 1,46 Гбайт
Продолжительность: 1 ч. 45 м.
Общий поток: 1980 Кбит/сек
Дата кодирования: UTC 2011-08-06 10:11:13
Программа кодирования: mkvmerge v2.3.0 ('Freak U') built on Sep8 2008 18:32:16
Библиотека кодирования: libebml v0.7.7 + libmatroska v0.8.1

Видео
Идентификатор: 1
Формат: AVC
Формат/Информация: Advanced Video Codec
Профиль формата: High@L5.1
Параметр CABAC формата: Да
Параметр ReFrames формата: 5 кадры
Идентификатор кодека: V_MPEG4/ISO/AVC
Продолжительность: 1 ч. 45 м.
Битрейт: 1850 Кбит/сек
Ширина: 1280 пикс.
Высота: 720 пикс.
Соотношение сторон: 16:9
Частота кадров: 24,000 кадр/сек
Цветовое пространство: YUV
Подвыборка цветности: 4:2:0
Битовая глубина: 8 бит
Тип развёртки: Прогрессивная
Бит/(Пиксели*Кадры): 0.084
Размер потока: 1,34 Гбайт (92%)
Библиотека кодирования: x264 core 80 r1376M 3feaec2
Настройки программы: cabac=1 / ref=5 / deblock=1:0:0 / analyse=0x3:0x113 / me=umh / subme=8 / psy=1 / psy_rd=1.0:0.0 / mixed_ref=1 / me_range=16 / chroma_me=1 / trellis=1 / 8x8dct=1 / cqm=0 / deadzone=21,11 / fast_pskip=1 / chroma_qp_offset=0 / threads=12 / sliced_threads=0 / nr=0 / decimate=1 / mbaff=0 / constrained_intra=0 / bframes=3 / b_pyramid=0 / b_adapt=2 / b_bias=0 / direct=3 / wpredb=1 / wpredp=2 / keyint=250 / keyint_min=25 / scenecut=40 / rc_lookahead=50 / rc=2pass / mbtree=1 / bitrate=1850 / ratetol=1.0 / qcomp=0.60 / qpmin=10 / qpmax=51 / qpstep=4 / cplxblur=20.0 / qblur=0.5 / ip_ratio=1.40 / aq=1:1.00

Аудио
Идентификатор: 2
Формат: MPEG Audio
Версия формата: Version 1
Профиль формата: Layer 3
Режим: Joint stereo
Расширение режима: MS Stereo
Идентификатор кодека: A_MPEG/L3
Идентификатор кодека/Подсказка: MP3
Продолжительность: 1 ч. 45 м.
Вид битрейта: Постоянный
Битрейт: 128 Кбит/сек
Канал(ы): 2 канала(ов)
Частота: 44,1 КГц
Метод сжатия: С потерями
Задержка видео: 11 мс.
Размер потока: 96,7 Мбайт (6%)





















Поделиться:




реклама партнёра


Вернуться к началу
 Профиль Отправить личное сообщение  
 
   Похожие торренты   Автор   Торрент   Размер 
В этой теме нет новых непрочитанных сообщений. Хешер / Hesher [Драма, 2010] ВDRip 1080р, Dvo+Sub

salma3

100 | 5

8.46 ГБ

В этой теме нет новых непрочитанных сообщений. Хешер / Hesher [Драма, 2010] BDRemux 1080p, Avo+Dvo+Mvo+Sub

salma3

17 | 23

39.32 ГБ

В этой теме нет новых непрочитанных сообщений. Сын Божий / Son of God (Кристофер Спенсер) [Драма, 2014] HDRip-AVC, Mvo+avo+Sub

Dracon

89 | 3

3.1 ГБ

В этой теме нет новых непрочитанных сообщений. Сын Божий / Son of God (Кристофер Спенсер) [2014, драма, HDRip] mvo

Nickolas3435

916 | 50

1.46 ГБ

В этой теме нет новых непрочитанных сообщений. Сын Божий / Son of God (Кристофер Спенсер) [драма, 2014] BDRip 1080p, Mvo+avo+Sub

Dracon

23 | 6

11.43 ГБ

В этой теме нет новых непрочитанных сообщений. Бьютифул / Biutiful [драма, 2010] HDRip, Mvo

salma3

114 | 10

1.45 ГБ

В этой теме нет новых непрочитанных сообщений. Амадор / Amador [драма, 2010] HDRip, Mvo

salma3

42 | 7

1.46 ГБ


Начать новую тему Ответить на тему  [ 1 сообщение ] 




Для Мосгорсуда, Роскомнадзора и рекламодателей:: mosgorsud-torrent[собачка]yandex.ru