Торрент файл
скачать торрент магнет ссылка Добавлен: 14 янв 2012, 22:38
Размер: 2.15 ГБ
Сидеров: 9
Личеров: 4
Автор

СообщениеДобавлено: 14 янв 2012, 22:38 

Не в сети
Супермодератор
Аватара пользователя
Дата регистрации:
11 апр 2010, 18:10
Спасибо: 5962 / 7
Сообщения: 56762
Выпускной / Prom

Перевод: Профессиональный (полное дублирование), cубтитры:русские

Формат: DVDRip, AVI, XviD, AC3

Страна: США

Режиссер: Джо Нуссбаум

Жанр: драма, мелодрама, комедия

Продолжительность: 01:39:31

Год выпуска: 2011

В ролях: Джаред Касниц, Нолан Сотилло, Камерон Монахэн, Кайли Банбери, Джо Аддер,Эйми Тигарден, Томас МакДонелл, Девон Никсон, Даниэль Кэмпбелл, Йин Чанг

Описание: Фильм расскажет о жизни старшеклассников, об их радостях и горестях, о дружбе и первой любви. Сюжет киноленты будет повествовать о учениках и ученицах одной из американских школ, которые готовятся к выпускному вечеру.

[/field]

Видео: 720x400 (1.80:1), 25 fps, XviD build 47 ~2311 kbps avg, 0.32 bit/pixel

Audio #1:Русский: 48 kHz, AC3 Dolby Digital, 3/2 (L,C,R,l,r) + LFE ch, ~384.00 kbps avg Профессиональный (полное дублирование)
Audio #2: Английский: 48 kHz, AC3 Dolby Digital, 3/2 (L,C,R,l,r) + LFE ch, ~384.00 kbps avg [Оригинал]

General
Complete name: E:\Загрузки\vypusknoy.2011.dvdrip.xvid.rus.eng.srt\vypusknoy.2011.dvdrip.xvid.rus.eng.2150mb.by.komnatny.avi
Format: AVI
Format/Info: Audio Video Interleave
Format profile: OpenDML
File size: 2.15 GiB
Duration: 1h 39mn
Overall bit rate: 3 086 Kbps
Writing application: VirtualDubMod 1.5.10.2 (build 2540/release)
Writing library: VirtualDubMod build 2540/release

Video
ID: 0
Format: MPEG-4 Visual
Format profile: Advanced Simple@L5
Format settings, BVOP: 1
Format settings, QPel: No
Format settings, GMC: No warppoints
Format settings, Matrix: Default (H.263)
Codec ID: XVID
Codec ID/Hint: XviD
Duration: 1h 39mn
Bit rate: 2 300 Kbps
Width: 720 pixels
Height: 400 pixels
Display aspect ratio: 16:9
Frame rate: 25.000 fps
Color space: YUV
Chroma subsampling: 4:2:0
Bit depth: 8 bits
Scan type: Progressive
Compression mode: Lossy
Bits/(Pixel*Frame): 0.319
Stream size: 1.60 GiB (75%)
Writing library: XviD 1.2.0.dev47 (UTC 2006-11-01)

Audio #1
ID: 1
Format: AC-3
Format/Info: Audio Coding 3
Mode extension: CM (complete main)
Codec ID: 2000
Duration: 1h 39mn
Bit rate mode: Constant
Bit rate: 384 Kbps
Channel(s): 6 channels
Channel positions: Front: L C R, Side: L R, LFE
Sampling rate: 48.0 KHz
Bit depth: 16 bits
Compression mode: Lossy
Delay relative to video: 450ms
Stream size: 273 MiB (12%)
Alignment: Split accross interleaves
Interleave, duration: 40 ms (1.00 video frame)
Interleave, preload duration: 500 ms

Audio #2
ID: 2
Format: AC-3
Format/Info: Audio Coding 3
Mode extension: CM (complete main)
Codec ID: 2000
Duration: 1h 39mn
Bit rate mode: Constant
Bit rate: 384 Kbps
Channel(s): 6 channels
Channel positions: Front: L C R, Side: L R, LFE
Sampling rate: 48.0 KHz
Bit depth: 16 bits
Compression mode: Lossy
Delay relative to video: 450ms
Stream size: 273 MiB (12%)
Alignment: Split accross interleaves
Interleave, duration: 40 ms (1.00 video frame)
Interleave, preload duration: 500 ms









Поделиться:




реклама партнёра


Вернуться к началу
 Профиль Отправить личное сообщение  
 
   Похожие торренты   Автор   Торрент   Размер 
В этой теме нет новых непрочитанных сообщений. Выпускной / Bacalaureat [драма, 2016] DVDRip, Avo

salma3

78 | 54

2.05 ГБ

В этой теме нет новых непрочитанных сообщений. Выпускной (Всеволод Бродский) [2014, комедия, WEB-DLRip] [Лицензия]

marya111

48 | 2

1.37 ГБ

В этой теме нет новых непрочитанных сообщений. Выпускной / Bacalaureat [Драма, 2016] HDRip, Mvo

salma3

135 | 32

1.37 ГБ

В этой теме нет новых непрочитанных сообщений. Выпускной экзамен / A toute epreuve (Антуан Блоссер) [Комедия, 2014] HDRip, Mvo

Dracon

9 | 0

1.37 ГБ

В этой теме нет новых непрочитанных сообщений. Выпускной / Bacalaureat [Драма, 2016] BDRip 720p, Mvo

salma3

103 | 90

5.23 ГБ

В этой теме нет новых непрочитанных сообщений. Выпускной экзамен / À toute épreuve (Антуан Блоссер) [Комедия, 2014] BDRip 720p, Mvo

Dracon

231 | 14

4.87 ГБ

В этой теме нет новых непрочитанных сообщений. Школьный бал / Prom Night [ужасы, 1980] HDRip, Avo

salma3

82 | 20

1.45 ГБ


Начать новую тему Ответить на тему  [ 1 сообщение ] 




Для Мосгорсуда, Роскомнадзора и рекламодателей:: mosgorsud-torrent[собачка]yandex.ru