Торрент файл
скачать торрент магнет ссылка Добавлен: 14 янв 2012, 22:37
Размер: 1.45 ГБ
Сидеров: 1
Личеров: 4
Автор

СообщениеДобавлено: 14 янв 2012, 22:37 

Не в сети
Супермодератор
Аватара пользователя
Дата регистрации:
11 апр 2010, 18:10
Спасибо: 5801 / 7
Сообщения: 56779
Выпускной / Prom


Перевод: Профессиональный (полное дублирование)
Субтитры:отсутствуют
Формат: DVDRip, MKV, H.264, AC3

Страна: США
Режиссер: Джо Нуссбаум
Жанр: драма, мелодрама, комедия

Продолжительность: 01:39:31
Год выпуска: 2011

В ролях: Джаред Касниц, Нолан Сотилло, Камерон Монахэн, Кайли Банбери, Джо Аддер,Эйми Тигарден, Томас МакДонелл, Девон Никсон, Даниэль Кэмпбелл, Йин Чанг

Описание: Фильм расскажет о жизни старшеклассников, об их радостях и горестях, о дружбе и первой любви. Сюжет киноленты будет повествовать о учениках и ученицах одной из американских школ, которые готовятся к выпускному вечеру.







Видео: 720x400 (1.80:1), 25 fps, AVC (x264) High@L4.1 ~1 702 kbps avg, 0.236 bit/pixel
Аудио: 48 kHz, AC3, 6 ch, ~384 kbps avg

Рип от:TswetkOFF
Релиз-Группа:




General
Unique ID: 226931697907481208660924529488614133213 (0xAAB9748A2778EF4F839A752812080DDD)
Complete name: D:\Films\vipusknoy_[tfile.ru].mkv.mkv
Format: Matroska
File size: 1.45 GiB
Duration: 1h 39mn
Overall bit rate: 2 088 Kbps
Encoded date: UTC 2011-08-08 21:44:19
Writing application: mkvmerge v4.6.0 ('Still Crazy After All These Years') сборка от Apr1 2011 21:01:49
Writing library: libebml v1.2.0 + libmatroska v1.1.0

Video
ID: 1
Format: AVC
Format/Info: Advanced Video Codec
Format profile: High@L4.1
Format settings, CABAC: Yes
Format settings, ReFrames: 4 frames
Codec ID: V_MPEG4/ISO/AVC
Duration: 1h 39mn
Bit rate: 1 702 Kbps
Width: 720 pixels
Height: 400 pixels
Display aspect ratio: 16:9
Frame rate: 25.000 fps
Color space: YUV
Chroma subsampling: 4:2:0
Bit depth: 8 bits
Scan type: Progressive
Bits/(Pixel*Frame): 0.236
Stream size: 1.16 GiB (80%)
Writing library: x264 core 115 r1937 aa21558
Encoding settings: cabac=1 / ref=3 / deblock=1:-1:-1 / analyse=0x3:0x113 / me=hex / subme=7 / psy=1 / psy_rd=1.00:0.20 / mixed_ref=1 / me_range=16 / chroma_me=1 / trellis=1 / 8x8dct=1 / cqm=0 / deadzone=21,11 / fast_pskip=1 / chroma_qp_offset=-3 / threads=3 / sliced_threads=0 / nr=0 / decimate=0 / interlaced=0 / bluray_compat=0 / constrained_intra=0 / bframes=3 / b_pyramid=2 / b_adapt=1 / b_bias=0 / direct=1 / weightb=1 / open_gop=0 / weightp=2 / keyint=250 / keyint_min=25 / scenecut=40 / intra_refresh=0 / rc_lookahead=40 / rc=2pass / mbtree=1 / bitrate=1702 / ratetol=1.0 / qcomp=0.60 / qpmin=0 / qpmax=69 / qpstep=4 / cplxblur=20.0 / qblur=0.5 / ip_ratio=1.40 / aq=1:1.00

Audio
ID: 2
Format: AC-3
Format/Info: Audio Coding 3
Mode extension: CM (complete main)
Codec ID: A_AC3
Duration: 1h 39mn
Bit rate mode: Constant
Bit rate: 384 Kbps
Channel(s): 6 channels
Channel positions: Front: L C R, Side: L R, LFE
Sampling rate: 48.0 KHz
Bit depth: 16 bits
Compression mode: Lossy
Stream size: 273 MiB (18%)











Поделиться:




реклама партнёра


Вернуться к началу
 Профиль Отправить личное сообщение  
 
   Похожие торренты   Автор   Торрент   Размер 
В этой теме нет новых непрочитанных сообщений. Выпускной [Комедия, 2014] WEB-DLRip

Dracon

187 | 6

1.37 ГБ

В этой теме нет новых непрочитанных сообщений. Выпускной [Комедия, 2014] WEB-DLRip 720p

Dracon

9 | 2

2.81 ГБ

В этой теме нет новых непрочитанных сообщений. Выпускной [Комедия, 2014] WEB-DLRip 1080p

Dracon

64 | 5

3.67 ГБ

В этой теме нет новых непрочитанных сообщений. Выпускной (Всеволод Бродский) [2014, комедия, WEB-DLRip] [Лицензия]

marya111

48 | 2

1.37 ГБ

В этой теме нет новых непрочитанных сообщений. Выпускной экзамен / A toute epreuve (Антуан Блоссер) [Комедия, 2014] HDRip, Mvo

Dracon

9 | 0

1.37 ГБ

В этой теме нет новых непрочитанных сообщений. Выпускной экзамен / À toute épreuve (Антуан Блоссер) [Комедия, 2014] BDRip 720p, Mvo

Dracon

231 | 14

4.87 ГБ

В этой теме нет новых непрочитанных сообщений. I Killed the Prom Queen - Beloved (Deluxe Edition) [2014, Metalcore, MP3]

PriZraK

5 | 2

114.44 МБ


Начать новую тему Ответить на тему  [ 1 сообщение ] 




Для Мосгорсуда, Роскомнадзора и рекламодателей:: mosgorsud-torrent[собачка]yandex.ru