Торрент файл
скачать торрент магнет ссылка Добавлен: 14 янв 2012, 22:35
Размер: 744.78 МБ
Сидеров: 8
Личеров: 3
Автор

СообщениеДобавлено: 14 янв 2012, 22:35 

Не в сети
Супермодератор
Аватара пользователя
Дата регистрации:
11 апр 2010, 18:10
Спасибо: 5927 / 7
Сообщения: 56776
Страшно красив / Beastly

«Кто он на самом деле...»

Перевод: Любительский (двухголосый)
Субтитры:отсутствуют
Формат: LowHDRip, MKV, H.264, AC3

Страна: США
Режиссер: Даниел Барнз
Жанр: фэнтези, драма, мелодрама

Продолжительность: 01:26:09
Год выпуска: 2011

В ролях: Алекс Петтифер, Джастин Брэдли, Мэри-Кейт Олсен, Дакота Джонсон, Эрик Кнудсен, Ванесса Энн Хадженс, Карл Грабошас, Питер Краузе, Лиза Гэй Хэмилтон, Джонатан Дубски

Описание: Современный Манхэттен — мир гламура и роскоши. Кайл — король этого мира. Он красив и богат. Но когда мир вокруг него изменится, у него останется единственный шанс, чтобы вернуться назад…





[/field]

Видео: 704x296 (2.35:1), 23.976 fps, AVC (x264) High@L4.1 ~1079 kbps avg, 0.22 bit/pixel
Аудио: 48 kHz, AC3 Dolby Digital, 2 ch, ~28 kbps avg

Рип от:TswetkOFF
Релиз-Группа:


General
Unique ID: 178752975086357364240708494101111777326 (0x867A921BCD192DF9B89872E8447A282E)
Complete name: D:\Films\beastly_[tfile.ru].mkv
Format: Matroska
File size: 745 MiB
Duration: 1h 26mn
Overall bit rate: 1 209 Kbps
Encoded date: UTC 2011-08-14 00:24:17
Writing application: mkvmerge v4.6.0 ('Still Crazy After All These Years') сборка от Apr1 2011 21:01:49
Writing library: libebml v1.2.0 + libmatroska v1.1.0

Video
ID: 1
Format: AVC
Format/Info: Advanced Video Codec
Format profile: High@L4.1
Format settings, CABAC: Yes
Format settings, ReFrames: 4 frames
Format settings, GOP: M=1, N=32
Codec ID: V_MPEG4/ISO/AVC
Duration: 1h 26mn
Bit rate: 1 079 Kbps
Width: 704 pixels
Height: 296 pixels
Display aspect ratio: 2.35:1
Frame rate: 23.976 fps
Color space: YUV
Chroma subsampling: 4:2:0
Bit depth: 8 bits
Scan type: Progressive
Bits/(Pixel*Frame): 0.216
Stream size: 651 MiB (87%)
Writing library: x264 core 115 r1937 aa21558
Encoding settings: cabac=1 / ref=2 / deblock=1:-1:-1 / analyse=0x3:0x113 / me=hex / subme=6 / psy=1 / psy_rd=1.00:0.20 / mixed_ref=1 / me_range=16 / chroma_me=1 / trellis=1 / 8x8dct=1 / cqm=0 / deadzone=21,11 / fast_pskip=1 / chroma_qp_offset=-3 / threads=3 / sliced_threads=0 / nr=0 / decimate=0 / interlaced=0 / bluray_compat=0 / constrained_intra=0 / bframes=3 / b_pyramid=2 / b_adapt=1 / b_bias=0 / direct=1 / weightb=1 / open_gop=0 / weightp=1 / keyint=250 / keyint_min=23 / scenecut=40 / intra_refresh=0 / rc_lookahead=30 / rc=2pass / mbtree=1 / bitrate=1079 / ratetol=1.0 / qcomp=0.60 / qpmin=0 / qpmax=69 / qpstep=4 / cplxblur=20.0 / qblur=0.5 / ip_ratio=1.40 / aq=1:1.00

Audio
ID: 2
Format: AC-3
Format/Info: Audio Coding 3
Mode extension: CM (complete main)
Codec ID: A_AC3
Duration: 1h 26mn
Bit rate mode: Constant
Bit rate: 128 Kbps
Channel(s): 2 channels
Channel positions: Front: L R
Sampling rate: 48.0 KHz
Bit depth: 16 bits
Compression mode: Lossy
Stream size: 78.9 MiB (11%)













Поделиться:




реклама партнёра


Вернуться к началу
 Профиль Отправить личное сообщение  
 
   Похожие торренты   Автор   Торрент   Размер 
В этой теме нет новых непрочитанных сообщений. Торт / Cake (Даниел Барнз) [Драма, 2014] HDRip, avo

Dracon

5 | 4

1.37 ГБ

В этой теме нет новых непрочитанных сообщений. Торт / Cake (Даниел Барнз) [Драма, 2014] BDRip [ColdFilm]

Dracon

2 | 2

1.45 ГБ

В этой теме нет новых непрочитанных сообщений. Торт / Cake (Даниел Барнз) [Драма, 2014] BDRip 720p [ColdFilm]

Dracon

16 | 3

4.5 ГБ

В этой теме нет новых непрочитанных сообщений. Торт / Cake (Даниел Барнз) [Драма, 2014] BDRip 1080p [ColdFilm]

Dracon

8 | 5

7.78 ГБ

В этой теме нет новых непрочитанных сообщений. Маша и медведь: Страшно, аж жуть! (2016) BDRemux [H.264/1080p] (56 серия)

marya111

33 | 4

718.5 МБ

В этой теме нет новых непрочитанных сообщений. Сезон охоты 4: Страшно глупо / Open Season: Scared Silly [2015, Мультфильм, BDRip]

marya111

115 | 5

1.42 ГБ

В этой теме нет новых непрочитанных сообщений. Сезон охоты 4: Страшно глупо / Open Season: Scared Silly [мультфильм, 2015] HDRip, Mvo

salma3

5254 | 818

1.37 ГБ


Начать новую тему Ответить на тему  [ 1 сообщение ] 




Для Мосгорсуда, Роскомнадзора и рекламодателей:: mosgorsud-torrent[собачка]yandex.ru