Торрент файл
скачать торрент магнет ссылка Добавлен: 14 янв 2012, 22:29
Размер: 1.45 ГБ
Сидеров: 4
Личеров: 3
Автор

СообщениеДобавлено: 14 янв 2012, 22:29 

Не в сети
Супермодератор
Аватара пользователя
Дата регистрации:
11 апр 2010, 18:10
Спасибо: 5960 / 7
Сообщения: 56765
Заплати другому / Pay It Forward


Перевод: Профессиональный (полное дублирование)
Субтитры:отсутствуют
Формат: HDRip, MKV, H.264, AC3

Страна: США
Режиссер: Мими Ледер
Жанр: драма

Продолжительность: 02:03:28
Год выпуска: 2000

В ролях: Кевин Спейси, Хелен Хант, Хэйли Джоэл Осмент, Джей Мор, Джеймс Кэвизел, Джон Бон Джови, Энджи Дикинсон, Дэвид Рэмси, Гари Вернтц, Коллин Флинн

Описание: Представьте себе. Вы оказываете кому-либо существенную услугу и просите этого человека отблагодарить не вас, а трех других людей, которые, в свою очередь, отблагодарят еще троих, и так далее, в мировом масштабе, распространяя доброту и тепло. Насколько действенной может оказаться подобная сердечная идея? Ученик седьмого класса Тревор МакКинни решил это проверить, начав цепочку добра.





[/field]

Видео: 720x400 (16:9), 23.976 fps, AVC (x264) High@L4.1 ~1298 kbps avg, 0.19 bit/pixel
Аудио: 48 kHz, AC3 Dolby Digital, 3/2 (L,C,R,l,r) + LFE ch, ~384.00 kbps avg

Рип от:TswetkOFF
Релиз-Группа:





General
Unique ID: 246683925647624008775996238109326738457 (0xB995988E3CDB2968BA79E2F4F6DC8419)
Complete name: D:\Films\plati drugomu\pay_it_forward_[tfile.ru].mkv
Format: Matroska
File size: 1.45 GiB
Duration: 2h 3mn
Overall bit rate: 1 683 Kbps
Encoded date: UTC 2011-08-29 19:51:37
Writing application: mkvmerge v4.6.0 ('Still Crazy After All These Years') сборка от Apr1 2011 21:01:49
Writing library: libebml v1.2.0 + libmatroska v1.1.0

Video
ID: 1
Format: AVC
Format/Info: Advanced Video Codec
Format profile: High@L4.1
Format settings, CABAC: Yes
Format settings, ReFrames: 4 frames
Codec ID: V_MPEG4/ISO/AVC
Duration: 2h 3mn
Bit rate: 1 298 Kbps
Width: 720 pixels
Height: 400 pixels
Display aspect ratio: 16:9
Frame rate: 23.976 fps
Color space: YUV
Chroma subsampling: 4:2:0
Bit depth: 8 bits
Scan type: Progressive
Bits/(Pixel*Frame): 0.188
Stream size: 1.09 GiB (75%)
Writing library: x264 core 115 r1937 aa21558
Encoding settings: cabac=1 / ref=2 / deblock=1:-1:-1 / analyse=0x3:0x113 / me=hex / subme=4 / psy=1 / psy_rd=0.00:0.10 / mixed_ref=0 / me_range=16 / chroma_me=1 / trellis=1 / 8x8dct=1 / cqm=0 / deadzone=21,11 / fast_pskip=1 / chroma_qp_offset=-1 / threads=3 / sliced_threads=0 / nr=0 / decimate=1 / interlaced=0 / bluray_compat=0 / constrained_intra=0 / bframes=3 / b_pyramid=2 / b_adapt=1 / b_bias=0 / direct=1 / weightb=1 / open_gop=0 / weightp=1 / keyint=250 / keyint_min=23 / scenecut=40 / intra_refresh=0 / rc_lookahead=20 / rc=2pass / mbtree=1 / bitrate=1298 / ratetol=1.0 / qcomp=0.60 / qpmin=0 / qpmax=69 / qpstep=4 / cplxblur=20.0 / qblur=0.5 / ip_ratio=1.40 / aq=1:1.00

Audio
ID: 2
Format: AC-3
Format/Info: Audio Coding 3
Mode extension: CM (complete main)
Codec ID: A_AC3
Duration: 2h 3mn
Bit rate mode: Constant
Bit rate: 384 Kbps
Channel(s): 6 channels
Channel positions: Front: L C R, Side: L R, LFE
Sampling rate: 48.0 KHz
Bit depth: 16 bits
Compression mode: Lossy
Stream size: 339 MiB (23%)























Поделиться:




реклама партнёра


Вернуться к началу
 Профиль Отправить личное сообщение  
 
   Похожие торренты   Автор   Торрент   Размер 
В этой теме нет новых непрочитанных сообщений. Заплати другому / Pay It Forward [драма, 2000] WEB-DL 1080p, Dub+Avo+Sub

salma3

75 | 4

5.8 ГБ

В этой теме нет новых непрочитанных сообщений. Бесстыжие / Бесстыдники / Shameless (US) [05x01-09 из 12] (Марк Майлод, Джон Уэллс, Мими Ледер) [2015, драма, комедия, HDTVRip | AlexFilm]

Nickolas3435

64 | 68

5.61 ГБ

В этой теме нет новых непрочитанных сообщений. Бесстыжие / Бесстыдники / Shameless (US) [05x01-04 из 12] (Марк Майлод, Джон Уэллс, Мими Ледер) [2015, драма, комедия, HDTVRip | AlexFilm]

Nickolas3435

97 | 138

2.49 ГБ

В этой теме нет новых непрочитанных сообщений. Оставленные / The Leftovers [S02] (Мими Ледер, Питер Берг, Мишель Максвелл МакЛарен) [2015, Фэнтези, драма, детектив, HDTVRip | Amedia]

Dracon

57 | 35

6.58 ГБ

В этой теме нет новых непрочитанных сообщений. Оставленные / The Leftovers [02x01-06 из 10] (Мими Ледер, Питер Берг, Мишель Максвелл МакЛарен) [2015, фэнтези, драма, детектив, HDTVRip | HamsterStudio]

Dracon

27 | 33

3.93 ГБ

В этой теме нет новых непрочитанных сообщений. Бесстыжие / Бесстыдники / Shameless (US) [05x01-12 из 12] (Марк Майлод, Джон Уэллс, Мими Ледер) [2015, драма, комедия, HDTVRip 720p | AlexFilm]

Nickolas3435

122 | 202

16.08 ГБ

В этой теме нет новых непрочитанных сообщений. Оставленные / The Leftovers [02x01-07 из 10] (Мими Ледер, Питер Берг, Мишель Максвелл МакЛарен) [2015, фэнтези, драма, детектив, HDTVRip | HamsterStudio]

Dracon

30 | 39

4.61 ГБ


Начать новую тему Ответить на тему  [ 1 сообщение ] 




Для Мосгорсуда, Роскомнадзора и рекламодателей:: mosgorsud-torrent[собачка]yandex.ru
cron