Торрент файл
скачать торрент магнет ссылка Добавлен: 14 янв 2012, 22:29
Размер: 1.45 ГБ
Сидеров: 86
Личеров: 10
Автор

СообщениеДобавлено: 14 янв 2012, 22:29 

Не в сети
Супермодератор
Аватара пользователя
Дата регистрации:
11 апр 2010, 18:10
Спасибо: 5801 / 7
Сообщения: 56779
Зеленая миля / The Green Mile

«Walk a mile you'll never forget.»

Перевод: Профессиональный (полное дублирование)
Субтитры: отсутствуют
Формат: HDRip, MKV, H.264, AC3

Страна: США
Режиссер: Фрэнк Дарабонт
Жанр: фэнтези, драма, криминал, детектив

Продолжительность: 03:08:37
Год выпуска: 1999

В ролях: Том Хэнкс, Дэвид Морс, Бонни Хант, Майкл Кларк Данкан, Джеймс Кромуэлл, Майкл Джетер, Грэм Грин, Даг Хатчисон, Сэм Рокуэлл, Барри Пеппер, Джеффри ДеМанн, Патришиа Кларксон, Хэрри Дин Стэнтон, Дэббс Грир, Ив Брент, Уильям Сэдлер, Пола Мэлкомсон, Брайан Либби, Брент Бриско, Гэри Синиз, Рэйчел Сингер, Гэри Имхофф, Тим Смит, Тодд Томпсон

Описание: Обвиненный в страшном преступлении, Джон Коффи оказывается в блоке смертников тюрьмы «Холодная гора». Вновь прибывший обладал поразительным ростом и был пугающе спокоен, что, впрочем, никак не влияло на отношение к нему начальника блока Пола Эджкомба, привыкшего исполнять приговор.Гигант удивил всех позже, когда выяснилось, что он обладает невероятной магической силой….







Видео: 720x400 (16:9),23,976 fps, MPEG4 AVC (x264) High@L4.1, 856 kbps avg, 0.124 bit/pixel
Аудио: 48 kHz, AC3, 6 ch, 256 kbps

Рип от:TswetkOFF
Релиз-Группа:





General
Unique ID: 223499213002201291478844209027227282173 (0xA82461F7C2F878C39D9AC56445A76AFD)
Complete name: D:\Films\zeljenaya_milya_[tfile.ru].mkv
Format: Matroska
File size: 1.45 GiB
Duration: 3h 8mn
Overall bit rate: 1 103 Kbps
Encoded date: UTC 2011-08-29 22:35:12
Writing application: mkvmerge v4.6.0 ('Still Crazy After All These Years') сборка от Apr1 2011 21:01:49
Writing library: libebml v1.2.0 + libmatroska v1.1.0

Video
ID: 1
Format: AVC
Format/Info: Advanced Video Codec
Format profile: High@L4.1
Format settings, CABAC: Yes
Format settings, ReFrames: 4 frames
Codec ID: V_MPEG4/ISO/AVC
Duration: 3h 8mn
Bit rate: 856 Kbps
Width: 720 pixels
Height: 400 pixels
Display aspect ratio: 16:9
Frame rate: 23.976 fps
Color space: YUV
Chroma subsampling: 4:2:0
Bit depth: 8 bits
Scan type: Progressive
Bits/(Pixel*Frame): 0.124
Stream size: 1.09 GiB (75%)
Writing library: x264 core 115 r1937 aa21558
Encoding settings: cabac=1 / ref=3 / deblock=1:-1:-1 / analyse=0x3:0x113 / me=hex / subme=7 / psy=1 / psy_rd=1.00:0.20 / mixed_ref=1 / me_range=16 / chroma_me=1 / trellis=1 / 8x8dct=1 / cqm=0 / deadzone=21,11 / fast_pskip=1 / chroma_qp_offset=-3 / threads=3 / sliced_threads=0 / nr=0 / decimate=0 / interlaced=0 / bluray_compat=0 / constrained_intra=0 / bframes=3 / b_pyramid=2 / b_adapt=1 / b_bias=0 / direct=1 / weightb=1 / open_gop=0 / weightp=2 / keyint=250 / keyint_min=23 / scenecut=40 / intra_refresh=0 / rc_lookahead=40 / rc=2pass / mbtree=1 / bitrate=856 / ratetol=1.0 / qcomp=0.60 / qpmin=0 / qpmax=69 / qpstep=4 / cplxblur=20.0 / qblur=0.5 / ip_ratio=1.40 / aq=1:1.00

Audio
ID: 2
Format: AC-3
Format/Info: Audio Coding 3
Mode extension: CM (complete main)
Codec ID: A_AC3
Duration: 3h 8mn
Bit rate mode: Constant
Bit rate: 256 Kbps
Channel(s): 6 channels
Channel positions: Front: L C R, Side: L R, LFE
Sampling rate: 48.0 KHz
Bit depth: 16 bits
Compression mode: Lossy
Stream size: 345 MiB (23%)





















Поделиться:




реклама партнёра


Вернуться к началу
 Профиль Отправить личное сообщение  
 
   Похожие торренты   Автор   Торрент   Размер 
В этой теме нет новых непрочитанных сообщений. Дьявольская миля / Devil's Mile [ужасы, боевик, криминал, 2014] WEBRip, Avo

salma3

436 | 35

1.37 ГБ

В этой теме нет новых непрочитанных сообщений. Дьявольская миля / Devil's Mile [ужасы, триллер, 2014] WEBRip, Avo

salma3

254 | 14

970.81 МБ

В этой теме нет новых непрочитанных сообщений. Прогулка среди могил / A Walk Among the Tombstones (Скотт Фрэнк) [2014, детектив, триллер, криминал, драма, HDRip] Dub

Nickolas3435

81 | 4

2.07 ГБ

В этой теме нет новых непрочитанных сообщений. Прогулка среди могил / A Walk Among the Tombstones (Скотт Фрэнк) [2014, детектив, триллер, криминал, драма, HDRip] Dub

Nickolas3435

158 | 4

1.36 ГБ

В этой теме нет новых непрочитанных сообщений. Фрэнк / Frank [драма, комедия, детектив, 2014] HDRip, Mvo [Лицензия]

Dracon

500 | 6

1.45 ГБ

В этой теме нет новых непрочитанных сообщений. Прогулка среди могил / A Walk Among the Tombstones (Скотт Фрэнк) [2014, детектив, триллер, криминал, драма, BDRip] Dub

Nickolas3435

1432 | 91

1.47 ГБ

В этой теме нет новых непрочитанных сообщений. Ходячие мертвецы / The Walking Dead (Сезон 6, Серии 1-15 из 16) (Фрэнк Дарабонт, Эрнест Р. Дикерсон) [2015-2016, Ужасы, триллер, фантастика, WEB-DLRip 1080p] [LostFilm , FOX , BaibaKo , HamsterStudio , Jaskier , Uateam]+[Sub Rus, Eng]

Враг Нароода


Начать новую тему Ответить на тему  [ 1 сообщение ] 




Для Мосгорсуда, Роскомнадзора и рекламодателей:: mosgorsud-torrent[собачка]yandex.ru