Торрент файл
скачать торрент магнет ссылка Добавлен: 14 янв 2012, 22:25
Размер: 1.46 ГБ
Сидеров: 53
Личеров: 5
Автор

СообщениеДобавлено: 14 янв 2012, 22:25 

Не в сети
Супермодератор
Аватара пользователя
Дата регистрации:
11 апр 2010, 18:10
Спасибо: 5799 / 7
Сообщения: 56779
[b]Комната в Риме / Habitacion en Roma[/b]

Перевод: Профессиональный (многоголосый, закадровый), cубтитры:русские, англиские

Формат: HDRip-AVC, MKV, H.264, AC3

Страна: Испания

Режиссер: Хулио Медем

Жанр: драма, мелодрама

Продолжительность: 01:47:26

Год выпуска: 2010

В ролях: Елена Анайя, Наташа Яровенко, Энрико Ло Версо, Найва Нимри, Эндер Мэллс, Лаура Мейзосо

Описание: Русская девушка Наташа проводит каникулы в Риме, готовясь вскоре выйти замуж. В ночь перед отъездом в Москву она знакомится с Альбой, которая настойчиво зовет ее к себе в отель. Наташа соглашается и вместе с опытной испанкой погружается в исследование своей сексуальности. В перерывах девушки делятся сокровенными тайнами, а к утру осознают, что между ними возникло чувство сильнее, чем планировалось изначально.

[/field]

Видео: 896 x 382 (2.35:1), 24.000 fps, AVC, х264, High@L3.0, ~1 531 Kbps 0.186 bit/pixel
Аудио: 48 kHz, AC3 Dolby Digital, 3/2 (L,C,R,l,r) + LFE ch, ~384 kbps

Релиз группа: FireBit

General
Unique ID: 194906611961617125303819493646277309941 (0x92A1A5E58795B982939D6458A68875F5)
Complete name: E:\Новая папка (3)\Komnata.v.Rime.2010.P.Rus.x264.HDRip.FireBit.mkv
Format: Matroska
File size: 1.46 GiB
Duration: 1h 47mn
Overall bit rate: 1 954 Kbps
Movie name: Комната в Риме / Room in Rome / Habitacion en Roma (2010) HDRip-AVC от FireBit
Encoded date: UTC 2011-02-08 04:28:47
Writing application: mkvmerge v2.3.0 ('Freak U') built on Sep8 2008 18:32:16
Writing library: libebml v0.7.7 + libmatroska v0.8.1

Video
ID: 1
Format: AVC
Format/Info: Advanced Video Codec
Format profile: High@L3.0
Format settings, CABAC: Yes
Format settings, ReFrames: 4 frames
Codec ID: V_MPEG4/ISO/AVC
Duration: 1h 47mn
Bit rate: 1 531 Kbps
Width: 896 pixels
Height: 382 pixels
Display aspect ratio: 2.35:1
Frame rate: 24.000 fps
Color space: YUV
Chroma subsampling: 4:2:0
Bit depth: 8 bits
Scan type: Progressive
Bits/(Pixel*Frame): 0.186
Stream size: 1.15 GiB (78%)
Language: English

Audio
ID: 2
Format: AC-3
Format/Info: Audio Coding 3
Mode extension: CM (complete main)
Codec ID: A_AC3
Duration: 1h 47mn
Bit rate mode: Constant
Bit rate: 384 Kbps
Channel(s): 6 channels
Channel positions: Front: L C R, Side: L R, LFE
Sampling rate: 48.0 KHz
Bit depth: 16 bits
Compression mode: Lossy
Delay relative to video: 15ms
Stream size: 295 MiB (20%)
Language: Russian

Text #1
ID: 3
Format: UTF-8
Codec ID: S_TEXT/UTF8
Codec ID/Info: UTF-8 Plain Text
Language: English

Text #2
ID: 4
Format: UTF-8
Codec ID: S_TEXT/UTF8
Codec ID/Info: UTF-8 Plain Text
Language: Russian

Text #3
ID: 5
Format: UTF-8
Codec ID: S_TEXT/UTF8
Codec ID/Info: UTF-8 Plain Text
Language: English









Поделиться:




реклама партнёра


Вернуться к началу
 Профиль Отправить личное сообщение  
 
   Похожие торренты   Автор   Торрент   Размер 
В этой теме нет новых непрочитанных сообщений. Беспокойная Анна / Caótica Ana (Хулио Медем / Julio Medem) [2007г., Испания, драма, DVDRip-AVC] MVO

Alfredovich

19 | 5

2.05 ГБ

В этой теме нет новых непрочитанных сообщений. Комната с видом / A Room with a View [драма, мелодрама, 1985] BDRip 720p, Mvo

salma3

14 | 3

5.66 ГБ

В этой теме нет новых непрочитанных сообщений. Запретная комната / The Forbidden Room [комедия, детектив, 2015] HDRip, Dvo

salma3

501 | 48

1.45 ГБ

В этой теме нет новых непрочитанных сообщений. Запретная комната / The Forbidden Room [Комедия, детектив, 2015] HDRip, Dvo

salma3

51 | 3

1.37 ГБ

В этой теме нет новых непрочитанных сообщений. Комната мертвых / The Dead Room 2015 [Ужасы, 2015] HDRip, Avo

salma3

76 | 2

1.14 ГБ

В этой теме нет новых непрочитанных сообщений. Мотель / Сумка / Комната 13 / Человек с сумкой / The Bag Man / Motel Room 13 / Motel [триллер, криминал, 2014] HDRip, dvo

Dracon

555 | 26

1.45 ГБ

В этой теме нет новых непрочитанных сообщений. Комната / Room [Драма, экранизация, 2015] WEB-DLRip, mvo

Dracon

34 | 2

1.37 ГБ


Начать новую тему Ответить на тему  [ 1 сообщение ] 




Для Мосгорсуда, Роскомнадзора и рекламодателей:: mosgorsud-torrent[собачка]yandex.ru