Торрент файл
скачать торрент магнет ссылка Добавлен: 14 янв 2012, 22:20
Размер: 1.42 ГБ
Сидеров: 113
Личеров: 8
Автор

СообщениеДобавлено: 14 янв 2012, 22:20 

Не в сети
Супермодератор
Аватара пользователя
Дата регистрации:
11 апр 2010, 18:10
Спасибо: 5802 / 7
Сообщения: 56779
500 дней лета / (500) Days of Summer


Перевод: Профессиональный (полное дублирование), cубтитры: отсутствуют
Формат: HDRip-AVC, MKV, H.264, AC3
Страна: США
Режиссер: Марк Уэбб
Жанр: мелодрама, комедия
Продолжительность: 01:35:04
Год выпуска: 2009

В ролях: Джозеф Гордон-Левитт, Зои Дешанель, Джеффри Аренд, Хлоя Моретц, Мэттью Грей Габлер, Кларк Грегг, Патриция Белчер, Рейчел Бостон, Минка Келли, Чарльз Уолкер

Описание: Главный герой работает в агентстве, выпускающем поздравительные открытки. Он придумывает все те забавные подписи, которые мы с Вами читаем на них. Молодой человек влюбляется в свою коллегу и решает, что она — «та, единственная». Но 500 дней их отношений показывают герою, что путь к счастью непредсказуем, неконтролируем и — невероятно забавен!



Видео: 928 x 384 (2:40:1), 23.976 fps, AVC (х264) High@L4.1, ~ 1760 Kbps, 0.206 bit/pixel
Аудио: 48 kHz, AC3 Dolby Digital, 3/2 (L,C,R,l,r) + LFE ch, ~384 kbps


Рип: jeenart

General
Unique ID: 230435388190016563899838996872051092531 (0xAD5C3DCEC2B09EDCBBB2A7B86C50EC33)
Complete name: F:\Мои релизы\Все релизы 10\500_dnej_leta_[tfile.ru].mkv
Format: Matroska
File size: 1.42 GiB
Duration: 1h 35mn
Overall bit rate: 2 145 Kbps
Encoded date: UTC 2011-09-15 02:40:48
Writing application: mkvmerge v4.6.0 ('Still Crazy After All These Years') сборка от Apr1 2011 21:01:49
Writing library: libebml v1.2.0 + libmatroska v1.1.0

Video
ID: 1
Format: AVC
Format/Info: Advanced Video Codec
Format profile: High@L4.1
Format settings, CABAC: Yes
Format settings, ReFrames: 4 frames
Format settings, GOP: M=4, N=32
Codec ID: V_MPEG4/ISO/AVC
Duration: 1h 35mn
Bit rate: 1 760 Kbps
Width: 928 pixels
Height: 384 pixels
Display aspect ratio: 2.40:1
Frame rate: 23.976 fps
Color space: YUV
Chroma subsampling: 4:2:0
Bit depth: 8 bits
Scan type: Progressive
Bits/(Pixel*Frame): 0.206
Stream size: 1.14 GiB (80%)
Writing library: x264 core 115 r1937 aa21558
Encoding settings: cabac=1 / ref=3 / deblock=1:-1:-1 / analyse=0x3:0x113 / me=hex / subme=7 / psy=1 / psy_rd=1.00:0.10 / mixed_ref=1 / me_range=16 / chroma_me=1 / trellis=1 / 8x8dct=1 / cqm=0 / deadzone=21,11 / fast_pskip=1 / chroma_qp_offset=-3 / threads=6 / sliced_threads=0 / nr=0 / decimate=1 / interlaced=0 / bluray_compat=0 / constrained_intra=0 / bframes=3 / b_pyramid=2 / b_adapt=1 / b_bias=0 / direct=1 / weightb=1 / open_gop=0 / weightp=2 / keyint=250 / keyint_min=23 / scenecut=40 / intra_refresh=0 / rc_lookahead=40 / rc=2pass / mbtree=1 / bitrate=1760 / ratetol=1.0 / qcomp=0.60 / qpmin=0 / qpmax=69 / qpstep=4 / cplxblur=20.0 / qblur=0.5 / ip_ratio=1.40 / aq=1:1.00

Audio
ID: 2
Format: AC-3
Format/Info: Audio Coding 3
Mode extension: CM (complete main)
Codec ID: A_AC3
Duration: 1h 35mn
Bit rate mode: Constant
Bit rate: 384 Kbps
Channel(s): 6 channels
Channel positions: Front: L C R, Side: L R, LFE
Sampling rate: 48.0 KHz
Bit depth: 16 bits
Compression mode: Lossy
Stream size: 261 MiB (18%)




















Поделиться:




реклама партнёра


Вернуться к началу
 Профиль Отправить личное сообщение  
 
   Похожие торренты   Автор   Торрент   Размер 
В этой теме нет новых непрочитанных сообщений. Области тьмы / Limitless / [S01] (Нил Бёргер, Марк Уэбб) [2015, фантастика, триллер, драма, WEB-DLRip | BaibaKo]

Dracon

207 | 563

12.42 ГБ

В этой теме нет новых непрочитанных сообщений. Шесть дней, семь ночей / Six Days Seven Nights [Мелодрама, Комедия, Боевик, Приключения, 1998] HDRip 1080p, Dub+Sub

salma3

0 | 0

4.37 ГБ

В этой теме нет новых непрочитанных сообщений. Области Тьмы / Limitless [01х01-11 из 22] (Нил Бёргер, Марк Уэбб) [2015, фантастика, триллер, драма, WEB-DL 720p | LostFilm]

Dracon

8 | 8

13.98 ГБ

В этой теме нет новых непрочитанных сообщений. Области тьмы / Limitless [01x01-07 из 22] (Нил Бёргер, Марк Уэбб) [2015, фантастика, триллер, драма, WEB-DLRip | LostFilm]

Nickolas3435

257 | 436

3.8 ГБ

В этой теме нет новых непрочитанных сообщений. Области тьмы / Limitless [01x01-08 из 22] (Нил Бёргер, Марк Уэбб) [2015, фантастика, триллер, драма, WEB-DLRip | NewStudio]

Nickolas3435

0 | 0

4.3 ГБ

В этой теме нет новых непрочитанных сообщений. Области тьмы / Limitless [01x01-21 из 22] (Нил Бёргер, Марк Уэбб) [2015, фантастика, триллер, драма, WEB-DLRip | LostFilm]

Dracon

116 | 215

11.34 ГБ

В этой теме нет новых непрочитанных сообщений. Области тьмы / Limitless [01x01-07 из 22] (Нил Бёргер, Марк Уэбб) [фантастика, триллер, драма, 2015] WEBRip [BaibaKo]

Dracon

44 | 104

3.98 ГБ


Начать новую тему Ответить на тему  [ 1 сообщение ] 




Для Мосгорсуда, Роскомнадзора и рекламодателей:: mosgorsud-torrent[собачка]yandex.ru