Торрент файл
скачать торрент магнет ссылка Добавлен: 14 янв 2012, 22:17
Размер: 1.46 ГБ
Сидеров: 30
Личеров: 7
Автор

СообщениеДобавлено: 14 янв 2012, 22:17 

Не в сети
Супермодератор
Аватара пользователя
Дата регистрации:
11 апр 2010, 18:10
Спасибо: 5799 / 7
Сообщения: 56779
Второй шанс / Футбольная банда / Gridiron Gang


Перевод: Профессиональный (многоголосый, закадровый), cубтитры: отсутствуют
Формат: HDRip-AVC, MKV, H.264, AC3
Страна: США
Режиссер: Фил Джоану
Жанр: драма, криминал, спорт
Продолжительность: 02:05:17
Год выпуска: 2006

В ролях: Дуэйн Джонсон, Иксзибит, Л. Скотт Колдуэлл, Леон Риппи, Кевин Данн, Джейд Йоркер, Дэвид Томас, Мо, Джеймс Эрл, Брэндон Смит, Джерни Смоллетт, Майкл Дж. Паган, Ямал Миксон, Омари Хардвик

Описание: Кажется, что те, кто уже серьезно оступились однажды и отбывают срок в исправительном учреждении, обречены, но может ли жизнь предоставить еще один шанс?! Особенно если есть человек, способный помочь. Помогут ли футбол и командный дух его воспитанникам вновь обрести чувство собственного достоинства и встать на путь исправления?!



Видео: 960 x 400 (2:40:1), 23.976 fps, AVC (х264) High@L4.1, ~ 1277 Kbps, 0.139 bit/pixel
Аудио: 48 kHz, AC3 Dolby Digital, 3/2 (L,C,R,l,r) + LFE ch, ~384 kbps


Рип: jeenart

General
Unique ID: 251185831511892482826700847525259432073 (0xBCF8A1A6CD78D35980B2A7337EB4D089)
Complete name: F:\Мои релизы\Все релизы 10\vtoroi_shans_[tfile.ru].mkv
Format: Matroska
File size: 1.46 GiB
Duration: 2h 5mn
Overall bit rate: 1 663 Kbps
Encoded date: UTC 2011-09-23 21:06:40
Writing application: mkvmerge v4.6.0 ('Still Crazy After All These Years') сборка от Apr1 2011 21:01:49
Writing library: libebml v1.2.0 + libmatroska v1.1.0

Video
ID: 1
Format: AVC
Format/Info: Advanced Video Codec
Format profile: High@L4.1
Format settings, CABAC: Yes
Format settings, ReFrames: 4 frames
Codec ID: V_MPEG4/ISO/AVC
Duration: 2h 5mn
Bit rate: 1 277 Kbps
Width: 960 pixels
Height: 400 pixels
Display aspect ratio: 2.40:1
Frame rate: 23.976 fps
Color space: YUV
Chroma subsampling: 4:2:0
Bit depth: 8 bits
Scan type: Progressive
Bits/(Pixel*Frame): 0.139
Stream size: 1.09 GiB (75%)
Writing library: x264 core 115 r1937 aa21558
Encoding settings: cabac=1 / ref=3 / deblock=1:-1:-1 / analyse=0x3:0x113 / me=hex / subme=7 / psy=1 / psy_rd=1.00:0.10 / mixed_ref=1 / me_range=16 / chroma_me=1 / trellis=1 / 8x8dct=1 / cqm=0 / deadzone=21,11 / fast_pskip=1 / chroma_qp_offset=-3 / threads=6 / sliced_threads=0 / nr=0 / decimate=1 / interlaced=0 / bluray_compat=0 / constrained_intra=0 / bframes=3 / b_pyramid=2 / b_adapt=1 / b_bias=0 / direct=1 / weightb=1 / open_gop=0 / weightp=2 / keyint=250 / keyint_min=23 / scenecut=40 / intra_refresh=0 / rc_lookahead=40 / rc=2pass / mbtree=1 / bitrate=1277 / ratetol=1.0 / qcomp=0.60 / qpmin=0 / qpmax=69 / qpstep=4 / cplxblur=20.0 / qblur=0.5 / ip_ratio=1.40 / aq=1:1.00

Audio
ID: 2
Format: AC-3
Format/Info: Audio Coding 3
Mode extension: CM (complete main)
Codec ID: A_AC3
Duration: 2h 5mn
Bit rate mode: Constant
Bit rate: 384 Kbps
Channel(s): 6 channels
Channel positions: Front: L C R, Side: L R, LFE
Sampling rate: 48.0 KHz
Bit depth: 16 bits
Compression mode: Lossy
Stream size: 344 MiB (23%)






















Поделиться:




реклама партнёра


Вернуться к началу
 Профиль Отправить личное сообщение  
 
   Похожие торренты   Автор   Торрент   Размер 
В этой теме нет новых непрочитанных сообщений. Банда снежного человека / The Sasquatch Gang [Комедия, 2006] DVDRip, Avo

salma3

0 | 1

690.13 МБ

В этой теме нет новых непрочитанных сообщений. Второй шанс / En chance til (Сюзанна Бир) [триллер, драма, 2014] HDRip, dvo

Dracon

7 | 0

1.44 ГБ

В этой теме нет новых непрочитанных сообщений. Банда призраков / Gang of Ghosts [драма, комедия, 2014] WEBRip, Dvo+Sub

salma3

14 | 4

1.46 ГБ

В этой теме нет новых непрочитанных сообщений. Второй шанс / Danny Collins [драма, 2014] BDRip-AVC, Dub [iTunes]

salma3

82 | 10

2.13 ГБ

В этой теме нет новых непрочитанных сообщений. Второй шанс / En chance til (Сюзанна Бир) [триллер, драма, 2015] BDRip 1080p, dvo+sub

Dracon

14 | 5

7.92 ГБ

В этой теме нет новых непрочитанных сообщений. Второй шанс / En chance til (Сюзанна Бир) [триллер, драма, 2015] BDRip 720p, dvo+sub

Dracon

23 | 1

5.34 ГБ

В этой теме нет новых непрочитанных сообщений. Второй шанс / Danny Collins (Дэн Фогельман) [драма, комедия, 2015] WEB-DL 720p, Dub [iTunes]

Dracon

245 | 14

3.25 ГБ


Начать новую тему Ответить на тему  [ 1 сообщение ] 




Для Мосгорсуда, Роскомнадзора и рекламодателей:: mosgorsud-torrent[собачка]yandex.ru