Торрент файл
скачать торрент магнет ссылка Добавлен: 14 янв 2012, 22:14
Размер: 1.45 ГБ
Сидеров: 0
Личеров: 5
Автор

СообщениеДобавлено: 14 янв 2012, 22:14 

Не в сети
Супермодератор
Аватара пользователя
Дата регистрации:
11 апр 2010, 18:10
Спасибо: 5802 / 7
Сообщения: 56779


[b]Цена страсти / The Ledge[/b]


Перевод: профессиональный (полное дублирование) [лицензия]
Субтитры: отсутствуют
Формат: HDRip-AVC, MKV, H.264, AC3

Страна: США
Режиссер: Мэтью Чэпмен
Жанр: драма, триллер

Продолжительность: 01:40:49
Год выпуска: 2011

В ролях: Патрик Уилсон, Лив Тайлер, Кристофер Горам, Чарли Ханнэм, Терренс Ховард, Жаклин Флеминг, Моника Акоста, Джиллиан Басерсон, Майк Пневски, Дин Дж. Уэст

Описание: «У нас прыгун!». Сколько раз офицер полиции Холлис Лучетти слышал эту фразу. В очередной раз он должен уговорить человека, стоящего на карнизе крыши, отказаться от прыжка. И всё это не в самый простой день для него самого. Время идёт, и Холлис начинает понимать, что всё идёт не так, как обычно в таких случаях. В течении часа он узнаёт не только о невероятной истории любви и страсти Шаны и Гэвина, но и цене, которую придётся заплатить всем.







Видео: 1024x576 (1.78:1), 23.976 fps, AVC (x264) High@L4.1 ~1671 kbps avg, 0.118 bit/pixel

Аудио: 48 kHz, AC3 Dolby Digital, 3/2 (L,C,R,l,r) + LFE ch, ~384 kbps avg


Общее
Уникальный идентификатор: 188846777842148309423875670322661007845 (0x8E129101DDB5C5BEB1A1ACB08BEBA1E5)
Полное имя: D:\cena.strasti.2011.h264.HDRip.AVC_[tfile.ru].mkv
Формат: Matroska
Размер файла: 1,45 Гбайт
Продолжительность: 1 ч. 40 м.
Общий поток: 2057 Кбит/сек
Дата кодирования: UTC 2011-09-28 12:55:58
Программа кодирования: mkvmerge v4.0.0 ('The Stars were mine') сборка от Jun6 2010 16:18:42
Библиотека кодирования: libebml v1.0.0 + libmatroska v1.0.0

Видео
Идентификатор: 1
Формат: AVC
Формат/Информация: Advanced Video Codec
Профиль формата: High@L4.1
Параметр CABAC формата: Да
Параметр ReFrames формата: 8 кадры
Идентификатор кодека: V_MPEG4/ISO/AVC
Продолжительность: 1 ч. 40 м.
Битрейт: 1671 Кбит/сек
Ширина: 1024 пикс.
Высота: 576 пикс.
Соотношение сторон: 16:9
Частота кадров: 23,976 кадр/сек
Цветовое пространство: YUV
Подвыборка цветности: 4:2:0
Битовая глубина: 8 бит
Тип развёртки: Прогрессивная
Бит/(Пиксели*Кадры): 0.118
Размер потока: 1,15 Гбайт (79%)
Библиотека кодирования: x264 core 116 r2074 2641b9e
Настройки программы: cabac=1 / ref=8 / deblock=1:-2:-1 / analyse=0x3:0x133 / me=umh / subme=9 / psy=1 / psy_rd=1.00:0.00 / mixed_ref=1 / me_range=32 / chroma_me=1 / trellis=2 / 8x8dct=1 / cqm=0 / deadzone=21,11 / fast_pskip=1 / chroma_qp_offset=-2 / threads=12 / sliced_threads=0 / nr=0 / decimate=1 / interlaced=0 / bluray_compat=0 / constrained_intra=0 / bframes=6 / b_pyramid=2 / b_adapt=2 / b_bias=0 / direct=3 / weightb=1 / open_gop=0 / weightp=2 / keyint=240 / keyint_min=23 / scenecut=40 / intra_refresh=0 / rc_lookahead=50 / rc=2pass / mbtree=1 / bitrate=1671 / ratetol=1.0 / qcomp=0.60 / qpmin=0 / qpmax=69 / qpstep=4 / cplxblur=20.0 / qblur=0.5 / ip_ratio=1.40 / aq=1:1.00

Аудио
Идентификатор: 2
Формат: AC-3
Формат/Информация: Audio Coding 3
Расширение режима: CM (complete main)
Идентификатор кодека: A_AC3
Продолжительность: 1 ч. 40 м.
Вид битрейта: Постоянный
Битрейт: 384 Кбит/сек
Канал(ы): 6 канала(ов)
Расположение каналов: Front: L C R, Side: L R, LFE
Частота: 48,0 КГц
Битовая глубина: 16 бит
Метод сжатия: С потерями
Размер потока: 277 Мбайт (19%)
Заголовок: DUB
Язык: Russian





















Поделиться:




реклама партнёра


Вернуться к началу
 Профиль Отправить личное сообщение  
 
   Похожие торренты   Автор   Торрент   Размер 
В этой теме нет новых непрочитанных сообщений. Зверство на голубом экране  / Wild in Blue (Мэтью Берковиц) [Триллер, 2014] HDRip, avo

Dracon

2 | 0

1.44 ГБ

В этой теме нет новых непрочитанных сообщений. Цена человека / Il capitale umano (Паоло Вирдзи) [драма, 2013] HDRip, Mvo

Dracon

6 | 4

1.46 ГБ

В этой теме нет новых непрочитанных сообщений. Цена сахара / Hoe Duur was de Suiker (Жан ван Де Вельде) [2013, Драма, история, приключения, HDRip] avo

Nickolas3435

371 | 21

2.05 ГБ

В этой теме нет новых непрочитанных сообщений. Вечность / Forever [s01x01] (Мэтью Миллер) [2014, Мэтью Миллер, HDTVRip | Гараж Дубляж]

Nickolas3435

87 | 14

379.75 МБ

В этой теме нет новых непрочитанных сообщений. Цена страха / The Sum of All Fears [боевик, триллер, драма, 2002] BDRip 1080p, Dub+Sub [лицензия]

salma3

23 | 2

7.76 ГБ

В этой теме нет новых непрочитанных сообщений. Цена страха / The Sum of All Fears [боевик, триллер, драма, 2002] BDRip 1080p, Dub+Sub [лицензия]

salma3

4 | 8

11.55 ГБ

В этой теме нет новых непрочитанных сообщений. Жрица страсти / Woman of Desire [драма, триллер, 1993] DVDRip, Avo

salma3

506 | 16

1.37 ГБ


Начать новую тему Ответить на тему  [ 1 сообщение ] 




Для Мосгорсуда, Роскомнадзора и рекламодателей:: mosgorsud-torrent[собачка]yandex.ru