Торрент файл
скачать торрент магнет ссылка Добавлен: 14 янв 2012, 22:14
Размер: 1.45 ГБ
Сидеров: 45
Личеров: 5
Автор

СообщениеДобавлено: 14 янв 2012, 22:14 

Не в сети
Супермодератор
Аватара пользователя
Дата регистрации:
11 апр 2010, 18:10
Спасибо: 5960 / 7
Сообщения: 56765
Цена страсти / The Ledge


Перевод: Профессиональный (полное дублирование), cубтитры: отсутствуют
Формат: HDRip-AVC, MKV, H.264, AC3
Страна: США
Режиссер: Мэтью Чэпмен
Жанр: триллер, драма
Продолжительность: 01:40:47
Год выпуска: 2011

В ролях: Патрик Уилсон, Лив Тайлер, Кристофер Горам, Чарли Ханнэм, Терренс Ховард, Жаклин Флеминг, Моника Акоста, Джиллиан Басерсон, Майк Пневски, Дин Дж. Уэст

Описание: После переезда в новую квартиру Шона нанимается на работу в отель. Ее начальником оказывается сосед по лестничной площадке Гэвин. Непростые отношения с фанатично верующим мужем и возникшая между Шоной и Гэвином тяга толкают их друг к другу. Двое мужчин кардинально противоположных взглядов впутываются в сложный любовный треугольник с прекрасной женщиной, обострившей их философское противостояние до смертельной схватки.



Видео: 928 x 520 (1:78:1), 23.976 fps, AVC (х264) High@L4.1, ~ 1680 Kbps, 0.145 bit/pixel
Аудио: 48 kHz, AC3 Dolby Digital, 3/2 (L,C,R,l,r) + LFE ch, ~384 kbps


Рип: jeenart

General
Unique ID: 190384155640211535018428185639563528770 (0x8F3AA795BAAD22E2B9E0638C88838A42)
Complete name: F:\Мои релизы\Все релизы 10\tsena_strasti_[tfile.ru].mkv
Format: Matroska
File size: 1.45 GiB
Duration: 1h 40mn
Overall bit rate: 2 066 Kbps
Encoded date: UTC 2011-09-29 04:36:13
Writing application: mkvmerge v4.6.0 ('Still Crazy After All These Years') сборка от Apr1 2011 21:01:49
Writing library: libebml v1.2.0 + libmatroska v1.1.0

Video
ID: 1
Format: AVC
Format/Info: Advanced Video Codec
Format profile: High@L4.1
Format settings, CABAC: Yes
Format settings, ReFrames: 4 frames
Format settings, GOP: M=4, N=16
Codec ID: V_MPEG4/ISO/AVC
Duration: 1h 40mn
Bit rate: 1 680 Kbps
Width: 928 pixels
Height: 520 pixels
Display aspect ratio: 16:9
Frame rate: 23.976 fps
Color space: YUV
Chroma subsampling: 4:2:0
Bit depth: 8 bits
Scan type: Progressive
Bits/(Pixel*Frame): 0.145
Stream size: 1.16 GiB (79%)
Writing library: x264 core 115 r1937 aa21558
Encoding settings: cabac=1 / ref=3 / deblock=1:-1:-1 / analyse=0x3:0x113 / me=hex / subme=7 / psy=1 / psy_rd=1.00:0.10 / mixed_ref=1 / me_range=16 / chroma_me=1 / trellis=1 / 8x8dct=1 / cqm=0 / deadzone=21,11 / fast_pskip=1 / chroma_qp_offset=-3 / threads=6 / sliced_threads=0 / nr=0 / decimate=1 / interlaced=0 / bluray_compat=0 / constrained_intra=0 / bframes=3 / b_pyramid=2 / b_adapt=1 / b_bias=0 / direct=1 / weightb=1 / open_gop=0 / weightp=2 / keyint=250 / keyint_min=23 / scenecut=40 / intra_refresh=0 / rc_lookahead=40 / rc=2pass / mbtree=1 / bitrate=1680 / ratetol=1.0 / qcomp=0.60 / qpmin=0 / qpmax=69 / qpstep=4 / cplxblur=20.0 / qblur=0.5 / ip_ratio=1.40 / aq=1:1.00

Audio
ID: 2
Format: AC-3
Format/Info: Audio Coding 3
Mode extension: CM (complete main)
Codec ID: A_AC3
Duration: 1h 40mn
Bit rate mode: Constant
Bit rate: 384 Kbps
Channel(s): 6 channels
Channel positions: Front: L C R, Side: L R, LFE
Sampling rate: 48.0 KHz
Bit depth: 16 bits
Compression mode: Lossy
Stream size: 277 MiB (19%)













Поделиться:




реклама партнёра


Вернуться к началу
 Профиль Отправить личное сообщение  
 
   Похожие торренты   Автор   Торрент   Размер 
В этой теме нет новых непрочитанных сообщений. Цена красоты / Beautiful [триллер, драма, 2009] HDRip, Mvo

salma3

182 | 34

1.46 ГБ

В этой теме нет новых непрочитанных сообщений. Зверство на голубом экране  / Wild in Blue (Мэтью Берковиц) [Триллер, 2014] HDRip, avo

Dracon

2 | 0

1.44 ГБ

В этой теме нет новых непрочитанных сообщений. Цена сахара / Hoe Duur was de Suiker [драма, история, 2013] HDRip-AVC, Avo

salma3

162 | 58

2.17 ГБ

В этой теме нет новых непрочитанных сообщений. Цена человека / Il capitale umano (Паоло Вирдзи) [драма, 2013] HDRip, Mvo

Dracon

6 | 4

1.46 ГБ

В этой теме нет новых непрочитанных сообщений. Жрица страсти / Woman of Desire [драма, триллер, 1993] DVDRip, Avo

salma3

506 | 16

1.37 ГБ

В этой теме нет новых непрочитанных сообщений. Преступление на почве страсти / Crimes of Passion [триллер, драма, мелодрама, 1984] BDRip 720p, Mvo

salma3

1 | 2

4.98 ГБ

В этой теме нет новых непрочитанных сообщений. Преступление на почве страсти / Crimes of Passion [триллер, драма, мелодрама, 1984] BDRip 1080p, Mvo

salma3

1 | 2

8.86 ГБ


Начать новую тему Ответить на тему  [ 1 сообщение ] 




Для Мосгорсуда, Роскомнадзора и рекламодателей:: mosgorsud-torrent[собачка]yandex.ru