Торрент файл
скачать торрент магнет ссылка Добавлен: 14 янв 2012, 22:14
Размер: 2.1 ГБ
Сидеров: 5
Личеров: 3
Автор

СообщениеДобавлено: 14 янв 2012, 22:14 

Не в сети
Супермодератор
Аватара пользователя
Дата регистрации:
11 апр 2010, 18:10
Спасибо: 5802 / 7
Сообщения: 56779
Я - Сэм / I Am Sam



Перевод: Профессиональный(многоголосый закадровый),субтитры: отсутствуют
Формат: HDRip-AVC, MKV, H.264, AC3
Страна: США,
Жанр:драма
Продолжительность: 02:12:00
Режиссер: Джесси Нельсон / Jessie Nelson
Год выпуска: 2001

В ролях: Шон Пенн, Мишель Пфайффер, Дакота Фаннинг, Дайэнн Уист, Лоретта Дивайн, Ричард Шифф, Лора Дерн, Брэд Силверман, Джозеф Розенберг, Стэнли ДеСантис

Описание:Сэм Доусон, 40-летний мужчина с уровнем интеллекта 7-летнего ребёнка. Он работает посудомойщиком, что, в общем-то, не требует от него больших умственных способностей. Но ему трудно было бы выжить с такими данными, если бы не дочь, плод случайной связи. Люси выросла вполне нормальным человеком и могла бы заботиться о своём отце. Но местная социальная служба забрала её у отца ещё в глубоком детстве. И вот теперь Сэм хочет вернуть свою дочь. Для ведения этого дела он нанимает адвоката Риту Харрисон. По мере работы над этим делом Рита сама получает несколько уроков о том, что значит быть родителем…

________

Видео: 1152x624 (1:84:6),23,976 кадр/сек, AVC (х264),High@L3.1, ~ 1890 Kbps,0.110 bit/pixel
Аудио: 48 kHz, AC3 Dolby Digital, 3/2 (L,C,R,l,r) + LFE ch, ~384 kbps

Автор РИПа:ANDREY22W22
Общее
Уникальный идентификатор: 182564606162059470922070618098385088663 (0x8958AA07A7329A9F91B728534FDCF097)
Полное имя: E:\рипы\iam_sam_[tfile.ru].mkv
Формат: Matroska
Версия формата: Version 2
Размер файла: 2,10 Гбайт
Продолжительность: 2 ч. 12 м.
Общий поток: 2275 Кбит/сек
Дата кодирования: UTC 2011-09-25 23:25:09
Программа кодирования: mkvmerge v4.9.1 ('Ich will') зібрано Aug 10 2011 09:31:20
Библиотека кодирования: libebml v1.2.1 + libmatroska v1.2.0

Видео
Идентификатор: 1
Формат: AVC
Формат/Информация: Advanced Video Codec
Профиль формата: High@L3.1
Параметр CABAC формата: Да
Параметр ReFrames формата: 4 кадра
Идентификатор кодека: V_MPEG4/ISO/AVC
Продолжительность: 2 ч. 12 м.
Битрейт: 1890 Кбит/сек
Ширина: 1152 пикс.
Высота: 624 пикс.
Соотношение сторон: 16:9
Частота кадров: 23,976 кадр/сек
Цветовое пространство: YUV
Подвыборка цветности: 4:2:0
Битовая глубина: 8 бит
Тип развёртки: Прогрессивная
Бит/(Пиксели*Кадры): 0.110
Размер потока: 1,71 Гбайт (81%)
Библиотека кодирования: x264 core 116 r2074 2641b9e
Настройки программы: cabac=1 / ref=3 / deblock=1:-1:-1 / analyse=0x3:0x113 / me=hex / subme=7 / psy=1 / psy_rd=1.00:0.10 / mixed_ref=1 / me_range=16 / chroma_me=1 / trellis=1 / 8x8dct=1 / cqm=0 / deadzone=21,11 / fast_pskip=1 / chroma_qp_offset=-3 / threads=12 / sliced_threads=0 / nr=0 / decimate=1 / interlaced=0 / bluray_compat=0 / constrained_intra=0 / bframes=3 / b_pyramid=2 / b_adapt=1 / b_bias=0 / direct=3 / weightb=1 / open_gop=0 / weightp=2 / keyint=250 / keyint_min=23 / scenecut=40 / intra_refresh=0 / rc_lookahead=40 / rc=2pass / mbtree=1 / bitrate=1890 / ratetol=1.0 / qcomp=0.60 / qpmin=0 / qpmax=69 / qpstep=4 / cplxblur=20.0 / qblur=0.5 / ip_ratio=1.40 / aq=1:1.00

Аудио
Идентификатор: 2
Формат: AC-3
Формат/Информация: Audio Coding 3
Расширение режима: CM (complete main)
Идентификатор кодека: A_AC3
Продолжительность: 2 ч. 12 м.
Вид битрейта: Постоянный
Битрейт: 384 Кбит/сек
Каналы: 6 каналов
Расположение каналов: Front: L C R, Side: L R, LFE
Частота: 48,0 КГц
Битовая глубина: 16 бит
Метод сжатия: С потерями
Размер потока: 363 Мбайт (17%)








Поделиться:




реклама партнёра


Вернуться к началу
 Профиль Отправить личное сообщение  
 
   Похожие торренты   Автор   Торрент   Размер 
В этой теме нет новых непрочитанных сообщений. Подтверждение / The Confirmation (Боб Нельсон / Bob Nelson) [2016г., Канада, драма, комедия, HDRip-AVC] avo

Alfredovich

446 | 24

1.88 ГБ

В этой теме нет новых непрочитанных сообщений. Полу-Нельсон / Half Nelson [драма, 2006] DVDRip, Dvo+Sub

salma3

82 | 2

1.45 ГБ

В этой теме нет новых непрочитанных сообщений. Про Алекса / About Alex (Джесси Цвик) [драма, 2014] WEB-DLRip, Mvo [iTunes]

Dracon

98 | 8

1.37 ГБ

В этой теме нет новых непрочитанных сообщений. Про Алекса / About Alex (Джесси Цвик) [драма, 2014] WEB-DL 720p, Mvo [iTunes]

Dracon

35 | 3

3.09 ГБ

В этой теме нет новых непрочитанных сообщений. Джесси Стоун: Гибель невинных / Jesse Stone: Innocents Lost [драма, криминал, детектив, 2011] WEB-DL 720p, Avo+Sub

salma3

121 | 15

3.09 ГБ

В этой теме нет новых непрочитанных сообщений. Джесси Cтоун: Тайны парадиза / Jesse Stone: Lost in Paradise [Драма, криминал, 2015] WEB-DLRip, mvo [Чистый звук]

Dracon

267 | 12

1.37 ГБ

В этой теме нет новых непрочитанных сообщений. Джесси Cтоун: Тайны парадиза / Jesse Stone: Lost in Paradise [Драма, криминал, 2015] WEB-DL 1080p, mvo [Чистый звук]

Dracon

57 | 3

3.55 ГБ


Начать новую тему Ответить на тему  [ 1 сообщение ] 




Для Мосгорсуда, Роскомнадзора и рекламодателей:: mosgorsud-torrent[собачка]yandex.ru