Торрент файл
скачать торрент магнет ссылка Добавлен: 14 янв 2012, 22:14
Размер: 1.46 ГБ
Сидеров: 35
Личеров: 6
Автор

СообщениеДобавлено: 14 янв 2012, 22:14 

Не в сети
Супермодератор
Аватара пользователя
Дата регистрации:
11 апр 2010, 18:10
Спасибо: 5801 / 7
Сообщения: 56779
С широко закрытыми глазами / Eyes Wide Shut



Перевод: Профессиональный (многоголосый, закадровый),субтитры: отсутствуют
Формат: HDRip-AVC, MKV, H.264, AC3
Страна: США, Великобритания
Жанр: триллер, драма, детектив
Продолжительность: 02:39:00
Режиссер: Стэнли Кубрик / Stanley Kubrick
Год выпуска: 1999

В ролях: Том Круз, Николь Кидман, Мэдисон Эджинтон, Джеки Совирис, Сидни Поллак, Лесли Лоу, Питер Бенсон, Тодд Филд, Майкл Доуен, Скай Дюмонт

Описание:Билл и Элис Харфорд — супружеская пара, производящая впечатление счастливых людей, живущих своей размеренной жизнью в полном достатке. Но за фасадом идеальных отношений скрываются потоки ревности, неудовлетворенности, тайных желаний и жажды чего-то запредельного.

Первый шаг делает Элис, рассказывая мужу о своих фантазиях. Терзаемый ревностью Билл идет дальше, выходя за рамки мыслей и слов. Он наяву отправляется в пьянящую сексуальную одиссею, ведомый соблазном и щекочущими нервы переживаниями. Если бы в начале пути он знал, что пределом его мечтаний станет возможность вернуться к своей привычной семейной жизни, он бы не поверил, ведь искушение вкусить запретный плод было слишком сильно…


________

Видео: 1024x 576 (1:77:7),23,976 кадр/сек, AVC (х264),High@L3.2, ~ 926 Kbps, 0.065 bit/pixel
Аудио: 48 kHz, AC3 Dolby Digital, 3/2 (L,C,R,l,r) + LFE ch, ~384 kbps


Автор РИПа:ddimmon22
Общее
Уникальный идентификатор: 254938514175066013278366462079783574248 (0xBFCB5F3115E1D56F8D77BD3497DE9AE
Полное имя: K:\РИПЫ\s_shiroko_zakrytymi_glazami_[tfile.ru].mkv
Формат: Matroska
Версия формата: Version 2
Размер файла: 1,46 Гбайт
Продолжительность: 2 ч. 39 м.
Общий поток: 1311 Кбит/сек
Дата кодирования: UTC 2011-09-30 12:02:13
Программа кодирования: mkvmerge v4.9.1 ('Ich will') сборка от Aug 10 2011 09:31:20
Библиотека кодирования: libebml v1.2.1 + libmatroska v1.2.0

Видео
Идентификатор: 1
Формат: AVC
Формат/Информация: Advanced Video Codec
Профиль формата: High@L3.2
Параметр CABAC формата: Да
Параметр ReFrames формата: 8 кадров
Идентификатор кодека: V_MPEG4/ISO/AVC
Продолжительность: 2 ч. 39 м.
Битрейт: 926 Кбит/сек
Ширина: 1024 пикс.
Высота: 576 пикс.
Соотношение сторон: 16:9
Частота кадров: 23,976 кадр/сек
Цветовое пространство: YUV
Подвыборка цветности: 4:2:0
Битовая глубина: 8 бит
Тип развёртки: Прогрессивная
Бит/(Пиксели*Кадры): 0.065
Размер потока: 1,00 Гбайт (69%)
Библиотека кодирования: x264 core 116 r2074 2641b9e
Настройки программы: cabac=1 / ref=8 / deblock=1:-1:-1 / analyse=0x3:0x133 / me=umh / subme=7 / psy=1 / psy_rd=1.00:0.10 / mixed_ref=1 / me_range=16 / chroma_me=1 / trellis=2 / 8x8dct=1 / cqm=0 / deadzone=21,11 / fast_pskip=0 / chroma_qp_offset=-3 / threads=6 / sliced_threads=0 / nr=0 / decimate=1 / interlaced=0 / bluray_compat=0 / constrained_intra=0 / bframes=3 / b_pyramid=2 / b_adapt=2 / b_bias=0 / direct=3 / weightb=1 / open_gop=0 / weightp=2 / keyint=250 / keyint_min=23 / scenecut=40 / intra_refresh=0 / rc_lookahead=50 / rc=2pass / mbtree=1 / bitrate=926 / ratetol=1.0 / qcomp=0.60 / qpmin=0 / qpmax=69 / qpstep=4 / cplxblur=20.0 / qblur=0.5 / ip_ratio=1.40 / aq=1:1.00

Аудио
Идентификатор: 2
Формат: AC-3
Формат/Информация: Audio Coding 3
Расширение режима: CM (complete main)
Идентификатор кодека: A_AC3
Продолжительность: 2 ч. 39 м.
Вид битрейта: Постоянный
Битрейт: 384 Кбит/сек
Каналы: 6 каналов
Расположение каналов: Front: L C R, Side: L R, LFE
Частота: 48,0 КГц
Битовая глубина: 16 бит
Метод сжатия: С потерями
Размер потока: 437 Мбайт (29%)










Поделиться:




реклама партнёра


Вернуться к началу
 Профиль Отправить личное сообщение  
 
   Похожие торренты   Автор   Торрент   Размер 
В этой теме нет новых непрочитанных сообщений. С широко закрытыми глазами / Eyes Wide Shut [триллер, драма, детектив, 1999] BDRemux 1080p, Mvo

salma3

9 | 10

29.69 ГБ

В этой теме нет новых непрочитанных сообщений. Как девушка может сделать богатым ("С широко закрытыми глазами", Кубрик, 1999) Меняйлов [триллер, драма, детектив, 2014], HDRip

EvgenijUg

19 | 7

268.68 МБ

В этой теме нет новых непрочитанных сообщений. С закрытыми глазами [2014 г., Amateur, CamRip]

Dievas

4 | 4

283.21 МБ

В этой теме нет новых непрочитанных сообщений. Ass Wide Open 3 / Широко Раскрытая Задница 3 (2016) WEB-DL

amadei

41 | 36

3.07 ГБ

В этой теме нет новых непрочитанных сообщений. Сюрприз для любимой.МЖМ c закрытыми глазами. [2015 г., Homemade, Russian, SW, CamRip 480p]

friizze

3 | 3

58.63 МБ

В этой теме нет новых непрочитанных сообщений. Eyes Shut Tight - Fairground Zero [2011, Industrial Metal, MP3]

PriZraK

1 | 2

114.22 МБ

В этой теме нет новых непрочитанных сообщений. Wide Eyes - Samsara [2014, Progressive Metal, MP3]

PriZraK

0 | 1

183.2 МБ


Начать новую тему Ответить на тему  [ 1 сообщение ] 




Для Мосгорсуда, Роскомнадзора и рекламодателей:: mosgorsud-torrent[собачка]yandex.ru