Торрент файл
скачать торрент магнет ссылка Добавлен: 14 янв 2012, 22:12
Размер: 1.45 ГБ
Сидеров: 57
Личеров: 5
Автор

СообщениеДобавлено: 14 янв 2012, 22:12 

Не в сети
Супермодератор
Аватара пользователя
Дата регистрации:
11 апр 2010, 18:10
Спасибо: 5802 / 7
Сообщения: 56779
Игры разума / A Beautiful Mind



Перевод: Профессиональный (полное дублирование),субтитры: отсутствуют
Формат: HDRip-AVC, MKV, H.264, AC3
Страна: США
Жанр: драма, биография
Продолжительность: 02:15:00
Режиссер: Рон Ховард / Ron Howard
Год выпуска: 2001

В ролях: Рассел Кроу, Эд Харрис, Дженнифер Коннелли, Кристофер Пламмер, Пол Беттани, Адам Голдберг, Джош Лукас, Энтони Рэпп, Джейсон Грей-Стенфорд, Джудд Хирш

Описание:От всемирной известности до греховных глубин — все это познал на своей шкуре Джон Форбс Нэш-младший. Математический гений, он на заре своей карьеры сделал титаническую работу в области теории игр, которая практически перевернула этот раздел математики и практически принесла ему международную известность.

Однако буквально в то же время заносчивый и пользующийся успехом у женщин Нэш получает удар, который переворачивает уже его собственную жизнь — врачи ставят ему диагноз «параноидная шизофрения»…


________

Видео: 960x 520 (1:84:6),23,976 кадр/сек, AVC (х264),High@L3.1, ~1154 Kbps, 0.096 bit/pixel
Аудио: 48 kHz, AC3 Dolby Digital, 3/2 (L,C,R,l,r) + LFE ch, ~384 kbps


Автор РИПа:ddimmon22

Общее
Уникальный идентификатор: 204651058721618171929141626271259292945 (0x99F65C37004DC199B20C48E69E09F511)
Полное имя: I:\РИПЫ\a_beautiful_mind_[tfile.ru].mkv
Формат: Matroska
Версия формата: Version 2
Размер файла: 1,45 Гбайт
Продолжительность: 2 ч. 15 м.
Общий поток: 1539 Кбит/сек
Дата кодирования: UTC 2011-10-02 19:01:02
Программа кодирования: mkvmerge v4.9.1 ('Ich will') сборка от Aug 10 2011 09:31:20
Библиотека кодирования: libebml v1.2.1 + libmatroska v1.2.0

Видео
Идентификатор: 1
Формат: AVC
Формат/Информация: Advanced Video Codec
Профиль формата: High@L3.1
Параметр CABAC формата: Да
Параметр ReFrames формата: 8 кадров
Идентификатор кодека: V_MPEG4/ISO/AVC
Продолжительность: 2 ч. 15 м.
Битрейт: 1154 Кбит/сек
Ширина: 960 пикс.
Высота: 520 пикс.
Соотношение сторон: 16:9
Частота кадров: 23,976 кадр/сек
Цветовое пространство: YUV
Подвыборка цветности: 4:2:0
Битовая глубина: 8 бит
Тип развёртки: Прогрессивная
Бит/(Пиксели*Кадры): 0.096
Размер потока: 1,06 Гбайт (73%)
Библиотека кодирования: x264 core 116 r2074 2641b9e
Настройки программы: cabac=1 / ref=8 / deblock=1:-1:-1 / analyse=0x3:0x133 / me=umh / subme=7 / psy=1 / psy_rd=1.00:0.10 / mixed_ref=1 / me_range=16 / chroma_me=1 / trellis=2 / 8x8dct=1 / cqm=0 / deadzone=21,11 / fast_pskip=0 / chroma_qp_offset=-3 / threads=6 / sliced_threads=0 / nr=0 / decimate=1 / interlaced=0 / bluray_compat=0 / constrained_intra=0 / bframes=3 / b_pyramid=2 / b_adapt=2 / b_bias=0 / direct=3 / weightb=1 / open_gop=0 / weightp=2 / keyint=250 / keyint_min=23 / scenecut=40 / intra_refresh=0 / rc_lookahead=50 / rc=2pass / mbtree=1 / bitrate=1154 / ratetol=1.0 / qcomp=0.60 / qpmin=0 / qpmax=69 / qpstep=4 / cplxblur=20.0 / qblur=0.5 / ip_ratio=1.40 / aq=1:1.00

Аудио
Идентификатор: 2
Формат: AC-3
Формат/Информация: Audio Coding 3
Расширение режима: CM (complete main)
Идентификатор кодека: A_AC3
Продолжительность: 2 ч. 15 м.
Вид битрейта: Постоянный
Битрейт: 384 Кбит/сек
Каналы: 6 каналов
Расположение каналов: Front: L C R, Side: L R, LFE
Частота: 48,0 КГц
Битовая глубина: 16 бит
Метод сжатия: С потерями
Размер потока: 372 Мбайт (25%)











Поделиться:




реклама партнёра


Вернуться к началу
 Профиль Отправить личное сообщение  
 
   Похожие торренты   Автор   Торрент   Размер 
В этой теме нет новых непрочитанных сообщений. Око разума / Mind's Eye [фантастика, триллер, 2015] HDRip, Mvo

salma3

1172 | 83

1.45 ГБ

В этой теме нет новых непрочитанных сообщений. Око разума / Mind's Eye [фантастика, триллер, 2015] HDRip, Mvo

salma3

216 | 27

2.05 ГБ

В этой теме нет новых непрочитанных сообщений. Контроль разума / Beautiful Prison [ужасы, триллер, драма, мелодрама, 2016] WEB-DLRip, Mvo

salma3

1122 | 234

1.37 ГБ

В этой теме нет новых непрочитанных сообщений. Глаз разума / The Mind's Eye [ужасы, фантастика, боевик, 2015] WEB-DLRip, Mvo

salma3

236 | 22

1.37 ГБ

В этой теме нет новых непрочитанных сообщений. В сердце моря / In the Heart of the Sea (Рон Ховард) [2015, боевик, триллер, драма, приключения, биография, история, HDRip] Dub

Nickolas3435

18969 | 903

1.46 ГБ

В этой теме нет новых непрочитанных сообщений. В сердце моря / In the Heart of the Sea (Рон Ховард) [2015, боевик, триллер, драма, приключения, биография, история, HDRip] Dub

Nickolas3435

2703 | 56

2.19 ГБ

В этой теме нет новых непрочитанных сообщений. Безумная и прекрасная / Crazy & Beautiful [Драма, мелодрама, 2001] WEB-DL 720p, Dvo+Sub

salma3

91 | 9

3.39 ГБ


Начать новую тему Ответить на тему  [ 1 сообщение ] 




Для Мосгорсуда, Роскомнадзора и рекламодателей:: mosgorsud-torrent[собачка]yandex.ru