Торрент файл
скачать торрент магнет ссылка Добавлен: 14 янв 2012, 22:12
Размер: 1.45 ГБ
Сидеров: 0
Личеров: 3
Автор

СообщениеДобавлено: 14 янв 2012, 22:12 

Не в сети
Супермодератор
Аватара пользователя
Дата регистрации:
11 апр 2010, 18:10
Спасибо: 5801 / 7
Сообщения: 56779
Пантера / Panther

Перевод: Профессиональный (двухголосый), cубтитры: отсутствуют
Формат: DVDRip, MKV, AVC, AC3
Страна: США, Великобритания
Режиссер: Марио Ван Пиблз
Жанр: драма
Продолжительность: 02:06:39
Год выпуска: 1995
В ролях: Кадим Хардисон, Боким Вудбайн, Джо Дон Бэйкер, Кортни Б. Вэнс, Тайрин Тернер, Маркус Чонг, Энтони Гриффит, Бобби Браун, Нефертити, Джеймс Руссо, Дженифер Льюис, Крис Рок, Марио Ван Пиблз
Описание: Партию "Черных пантер" создали два парня — Бобби Сил и Хьюи Ньютон. Действие фильма для нашего героя начинается в штате Окленд после того, как машина белого сбила черного мальчишку на велосипеде. Вместе с основателями партии он всю жизнь посвятил борьбе за права цветных. Но его доля был тяжелей, так как Хьюи Ньютон поручил ему быть осведомителем полиции, через которого "пантеры" давали властям дозированную информацию. И никто, кроме Хьюи, об этом не знал. В фильме утверждается, что Гувер приказал гангстерам за бесценок распространять наркотики в гетто, чтобы сломить черных, а в рузльтате наркотики поразили всю страну. Хотя я не очень люблю фильмы такого рода, но этот сделан на редкость хорошо и увлекательно. Сценарий Мелвина Ван Пиблза по его же роману "Пантера"







Видео: 720х336 (1.91:1), 23.976 fps,Advanced Video Codec ( High@L4.1 ), ~1266 kbps avg, 0.218 bit/pixel
Аудио:Русский : 48 kHz, AC3, 1 ch, ~192 kbps avg[Профессиональный двухголосый]
Аудио:Английский : 48 kHz, AC3, 2 ch, ~192 kbps avg[Оригинал]
Общее
Уникальный идентификатор: 175974426704495842991149969037812446490 (0x84637118BBD4BE1AA57A85119F7A351A)
Полное имя: D:\Шара\pantera_[tfile.ru].mkv
Формат: Matroska
Версия формата: Version 2
Размер файла: 1,45 Гбайт
Продолжительность: 2 ч. 6 м.
Общий поток: 1644 Кбит/сек
Дата кодирования: UTC 2011-02-13 11:48:35
Программа кодирования: mkvmerge v4.5.0 ('Speed of Light') сборка от Feb1 2011 02:10:32
Библиотека кодирования: libebml v1.2.0 + libmatroska v1.1.0

Видео
Идентификатор: 1
Формат: AVC
Формат/Информация: Advanced Video Codec
Профиль формата: High@L4.1
Параметр CABAC формата: Да
Параметр ReFrames формата: 8 кадров
Идентификатор кодека: V_MPEG4/ISO/AVC
Продолжительность: 2 ч. 6 м.
Битрейт: 1266 Кбит/сек
Ширина: 720 пикселей
Высота: 336 пикселей
Соотношение сторон: 1,914
Частота кадров: 23,976 кадра/сек
Цветовое пространство: YUV
Субдискретизация насыщенности: 4:2:0
Битовая глубина: 8 бит
Тип развёртки: Прогрессивная
Бит/(Пиксели*Кадры): 0.218
Размер потока: 1,09 Гбайт (75%)
Библиотека кодирования: x264 core 98 r1649 20cbe10
Настройки программы: cabac=1 / ref=8 / deblock=1:-1:-1 / analyse=0x3:0x133 / me=umh / subme=9 / psy=1 / psy_rd=1.00:0.00 / mixed_ref=1 / me_range=16 / chroma_me=1 / trellis=2 / 8x8dct=1 / cqm=0 / deadzone=21,11 / fast_pskip=1 / chroma_qp_offset=-2 / threads=6 / sliced_threads=0 / nr=0 / decimate=1 / interlaced=0 / constrained_intra=0 / bframes=3 / b_pyramid=0 / b_adapt=2 / b_bias=0 / direct=3 / weightb=1 / weightp=2 / keyint=250 / keyint_min=25 / scenecut=40 / intra_refresh=0 / rc_lookahead=60 / rc=2pass / mbtree=1 / bitrate=1266 / ratetol=1.0 / qcomp=0.60 / qpmin=10 / qpmax=51 / qpstep=4 / cplxblur=20.0 / qblur=0.5 / vbv_maxrate=50000 / vbv_bufsize=50000 / ip_ratio=1.40 / aq=1:1.00 / nal_hrd=none
Язык: English

Аудио #1
Идентификатор: 2
Формат: AC-3
Формат/Информация: Audio Coding 3
Профиль формата: Dolby Digital
Расширение режима: CM (complete main)
Идентификатор кодека: A_AC3
Продолжительность: 2 ч. 6 м.
Вид битрейта: Постоянный
Битрейт: 192 Кбит/сек
Каналы: 2 канала
Расположение каналов: Front: L R
Частота: 48,0 КГц
Битовая глубина: 16 бит
Метод сжатия: С потерями
Размер потока: 174 Мбайт (12%)
Язык: English

Аудио #2
Идентификатор: 3
Формат: AC-3
Формат/Информация: Audio Coding 3
Расширение режима: CM (complete main)
Идентификатор кодека: A_AC3
Продолжительность: 2 ч. 6 м.
Вид битрейта: Постоянный
Битрейт: 192 Кбит/сек
Каналы: 1 канал
Расположение каналов: Front: C
Частота: 48,0 КГц
Битовая глубина: 16 бит
Метод сжатия: С потерями
Задержка видео: 4 с. 500 мс.
Размер потока: 174 Мбайт (12%)
Язык: Russian

Текст
Идентификатор: 4
Формат: UTF-8
Идентификатор кодека: S_TEXT/UTF8
Идентификатор кодека/Информация: UTF-8 Plain Text
Язык: English







Поделиться:




реклама партнёра


Вернуться к началу
 Профиль Отправить личное сообщение  
 
   Похожие торренты   Автор   Торрент   Размер 
В этой теме нет новых непрочитанных сообщений. Давайте надеяться, что будет девочка / Надеемся, что будет девочка / Speriamo che sia femmina (Марио Моничелли / Mario Monicelli) [1986г., драма, комедия, DVDRip] avo

Alfredovich

5 | 3

1.47 ГБ

В этой теме нет новых непрочитанных сообщений. Steel Panther - Balls Out [2011, Rock, MP3]

PriZraK

0 | 1

94.63 МБ

В этой теме нет новых непрочитанных сообщений. Красная пантера - Время пришло [1989, Hard'n'Heavy, MP3]

PriZraK

0 | 2

74.88 МБ

В этой теме нет новых непрочитанных сообщений. Круг / Circle (Аарон Ханн, Марио Мисионе) [2015, ужасы, фантастика, триллер, драма, HDRip] avo

Nickolas3435

44 | 4

898.95 МБ

В этой теме нет новых непрочитанных сообщений. Steel Panther - All You Can Eat [2014, Hard Rock, Glam Metal, MP3]

PriZraK

0 | 1

111.32 МБ

В этой теме нет новых непрочитанных сообщений. Фиеста / Fiesta [драма, 1995] DVDRip, Avo

salma3

17 | 4

1.36 ГБ

В этой теме нет новых непрочитанных сообщений. Спасение / Safe [Драма, 1995] DVDRip, Dvo

salma3

8 | 9

1.46 ГБ


Начать новую тему Ответить на тему  [ 1 сообщение ] 




Для Мосгорсуда, Роскомнадзора и рекламодателей:: mosgorsud-torrent[собачка]yandex.ru