Торрент файл
скачать торрент магнет ссылка Добавлен: 14 янв 2012, 22:10
Размер: 2.18 ГБ
Сидеров: 82
Личеров: 6
Автор

СообщениеДобавлено: 14 янв 2012, 22:10 

Не в сети
Супермодератор
Аватара пользователя
Дата регистрации:
11 апр 2010, 18:10
Спасибо: 5802 / 7
Сообщения: 56779
Вечное сияние чистого разума / Eternal Sunshine of the Spotless Mind

Перевод: Профессиональный (полное дублирование), cубтитры: Русские, Английские (полные, отключаемые)
Формат: HDRip, MKV, H.264, AC3
Страна: США
Режиссер: Мишель Гондри
Жанр: фантастика, драма, мелодрама
Продолжительность: 01:47:48
Год выпуска: 2004
В ролях: Джим Керри, Кейт Уинслет, Джерри Роберт Бирн, Элайджа Вуд, Томас Джей Райан, Марк Руффало, Джейн Адамс, Дэвид Кросс, Кирстен Данст, Том Уилкинсон
Описание: Наконец-то изобретена машина, которая позволяет избавиться от любых воспоминаний. Джоэль и Клементина решают выбросить друг друга из головы. Но в памяти Джоэля все еще живы самые нежные моменты их чувства. Чем меньше он помнит, тем больше любит.
Понимая, что он просто обожает Клементину, Джоэль пытается найти способ, чтобы вернуть любимой память о прошлом. Пока еще не очень поздно… Он должен победить ненавистный компьютерный мозг во что бы то ни стало!


Видео: 1280x696 (16:9), 23,976 fps, MPEG4 AVC (х264), High@L4.1 ~2500kbps avg, 0.117
Аудио: 48 kHz, AC-3, 6 ch, ~448.00 kbps avg


Автор РИПа:
Награды:
Оскар, 2005 год
Победитель (1):
Лучший оригинальный сценарий
Номинации (1):
Лучшая женская роль (Кейт Уинслет)
Золотой глобус, 2005 год
Номинации (4):
Лучший фильм (комедия или мюзикл)
Лучшая мужская роль (комедия или мюзикл) (Джим Керри)
Лучшая женская роль (комедия или мюзикл) (Кейт Уинслет)
Лучший сценарий
Британская академия, 2005 год
Победитель (2):
Лучший оригинальный сценарий
Лучший монтаж
Номинации (4):
Лучший фильм
Лучшая мужская роль (Джим Керри)
Лучшая женская роль (Кейт Уинслет)
Премия имени Дэвида Лина за достижения в режиссуре (Мишель Гондри)
Сезар, 2005 год
Номинации (1):
Лучший фильм на иностранном языке
Жорж, 2005 год
Номинации (1):
Лучший развлекательный фильм
Европейская киноакадемия, 2004 год
Номинации (1):
Приз Screen International Award

Общее
Уникальный идентификатор : 181759470939182655749545545584103495041 (0x88BD99CC70F357709C419115C6399581)
Полное имя : f:\Downloads\eternal_sunshine_of_the_spotless_mind_[tfile.ru].mkv
Формат : Matroska
Размер файла : 2,18 Гбайт
Продолжительность : 1 ч. 47 м.
Общий поток : 2889 Кбит/сек
Дата кодирования : UTC 2011-10-05 10:16:15
Программа кодирования : mkvmerge v4.6.0 ('Still Crazy After All These Years') сборка от Mar 10 2011 02:50:32
Библиотека кодирования : libebml v1.2.0 + libmatroska v1.1.0

Видео
Идентификатор : 1
Формат : AVC
Формат/Информация : Advanced Video Codec
Профиль формата : High@L4.1
Параметр CABAC формата : Да
Параметр ReFrames формата : 3 кадра
Режим смешивания : Header stripping
Идентификатор кодека : V_MPEG4/ISO/AVC
Продолжительность : 1 ч. 47 м.
Битрейт : 2500 Кбит/сек
Ширина : 1280 пикс.
Высота : 696 пикс.
Соотношение сторон : 16:9
Режим частоты кадров : Переменный
Частота кадров : 23,976 кадр/сек
Цветовое пространство : YUV
Подвыборка цветности : 4:2:0
Битовая глубина : 8 бит
Тип развёртки : Прогрессивная
Бит/(Пиксели*Кадры) : 0.117
Размер потока : 1,79 Гбайт (83%)
Библиотека кодирования : x264 core 116 r2019M 9cc407d
Настройки программы : cabac=1 / ref=3 / deblock=1:-1:-1 / analyse=0x3:0x133 / me=hex / subme=7 / psy=1 / psy_rd=1.00:0.15 / mixed_ref=1 / me_range=16 / chroma_me=1 / trellis=1 / 8x8dct=1 / cqm=0 / deadzone=21,11 / fast_pskip=1 / chroma_qp_offset=-3 / threads=8 / sliced_threads=0 / nr=0 / decimate=1 / interlaced=0 / bluray_compat=0 / constrained_intra=0 / bframes=3 / b_pyramid=1 / b_adapt=2 / b_bias=0 / direct=3 / weightb=1 / open_gop=0 / weightp=2 / keyint=230 / keyint_min=23 / scenecut=40 / intra_refresh=0 / rc_lookahead=40 / rc=abr / mbtree=1 / bitrate=2500 / ratetol=1.0 / qcomp=0.60 / qpmin=10 / qpmax=51 / qpstep=4 / vbv_maxrate=31250 / vbv_bufsize=31250 / nal_hrd=none / ip_ratio=1.40 / aq=1:1.00
Язык : English

Аудио
Идентификатор : 2
Формат : AC-3
Формат/Информация : Audio Coding 3
Расширение режима : CM (complete main)
Режим смешивания : Header stripping
Идентификатор кодека : A_AC3
Продолжительность : 1 ч. 47 м.
Вид битрейта : Постоянный
Битрейт : 448 Кбит/сек
Каналы : 6 каналов
Расположение каналов : Front: L C R, Side: L R, LFE
Частота : 48,0 КГц
Битовая глубина : 16 бит
Метод сжатия : С потерями
Размер потока : 345 Мбайт (16%)
Заголовок : DUB
Язык : Russian

Текст #1
Идентификатор : 3
Формат : UTF-8
Идентификатор кодека : S_TEXT/UTF8
Идентификатор кодека/Информация : UTF-8 Plain Text
Язык : Russian

Текст #2
Идентификатор : 4
Формат : UTF-8
Идентификатор кодека : S_TEXT/UTF8
Идентификатор кодека/Информация : UTF-8 Plain Text
Язык : English












Поделиться:




реклама партнёра


Вернуться к началу
 Профиль Отправить личное сообщение  
 
   Похожие торренты   Автор   Торрент   Размер 
В этой теме нет новых непрочитанных сообщений. Око разума / Mind's Eye [фантастика, триллер, 2015] HDRip, Mvo

salma3

1172 | 83

1.45 ГБ

В этой теме нет новых непрочитанных сообщений. Око разума / Mind's Eye [фантастика, триллер, 2015] HDRip, Mvo

salma3

216 | 27

2.05 ГБ

В этой теме нет новых непрочитанных сообщений. Глаз разума / The Mind's Eye [ужасы, фантастика, боевик, 2015] WEB-DLRip, Mvo

salma3

236 | 22

1.37 ГБ

В этой теме нет новых непрочитанных сообщений. Пекло / Sunshine [фантастика, триллер, приключения, 2007] HDRip, Dub

salma3

76 | 3

1.45 ГБ

В этой теме нет новых непрочитанных сообщений. Экстрасенс 2: Лабиринты разума / Mindscape / Anna [триллер, драма, 2013] HDRip, Avo [КПК]

salma3

7 | 3

337.87 МБ

В этой теме нет новых непрочитанных сообщений. Экстрасенс 2: Лабиринты разума / Mindscape [триллер, драма, 2013] HDRip, dub [звук с TS]

Dracon

18 | 3

1.46 ГБ

В этой теме нет новых непрочитанных сообщений. Экстрасенс 2: Лабиринты разума / Mindscape [триллер, драма, 2013] HDRip, dub [чистый звук]

Dracon

21 | 2

1.37 ГБ


Начать новую тему Ответить на тему  [ 1 сообщение ] 




Для Мосгорсуда, Роскомнадзора и рекламодателей:: mosgorsud-torrent[собачка]yandex.ru