Торрент файл
скачать торрент магнет ссылка Добавлен: 14 янв 2012, 22:09
Размер: 2.19 ГБ
Сидеров: 12
Личеров: 3
Автор

СообщениеДобавлено: 14 янв 2012, 22:09 

Не в сети
Супермодератор
Аватара пользователя
Дата регистрации:
11 апр 2010, 18:10
Спасибо: 5799 / 7
Сообщения: 56779
Дансер / The Dancer


Перевод: Профессиональный (полное дублирование), cубтитры: русские
Формат: DVDRip-AVC, MKV, H.264, AC3
Страна: Франция
Режиссер: Фред Гарсон / Fred Garson
Жанр: драма
Продолжительность: 01:29:32
Год выпуска: 2000
В ролях: Миа Фрай, Гарлэнд Уитт, Родни Истмэн, Джош Лукас, Федор Эткин, Джэррод Банч
Описание: Ее зовут Индиа. Она молода и красива. Ее страсть - танец. Каждый субботний вечер она выступает в престижном клубе с самыми известными ди-джеями, и какая бы ни была музыка - техно, хип-хоп или джаз, Индиа восхищает публику своими танцами. Но ни поклонникам, ни продюссерам не удается добиться ее внимания. Она исчезает из клуба так же незаметно, как и появляется. Кто разгадает, какая тайна окружает жизнь Королевы танцев?



Видео:716x432@1018х432, (2.35:1), 25 fps, AVC (х264), High@L3.1 , ~ 1765 Kbps,0.228 bit/pixel
Аудио 1: Русский 48 kHz, AC3 Dolby Digital, 3/2 (L,C,R,l,r) + LFE ch, ~448kbps[Профессиональный полное дублирование]
Аудио 2: Русский48 kHz, AC3 Dolby Digital, 3/2 (L,C,R,l,r) + LFE ch, ~448kbps[Профессиональный многоголосый закадровый]
Аудио 3: Английский 48 kHz, AC3 Dolby Digital, 3/2 (L,C,R,l,r) + LFE ch, ~384kbps
Аудио 4: Французский 48 kHz, AC3 Dolby Digital, 3/2 (L,C,R,l,r) + LFE ch, ~384kbps[Оригинал]



H:\Торренты\The_Dancer_[tfile.ru].mkv
General
Complete name : H:\Торренты\The_Dancer_[tfile.ru].mkv
Format : Matroska
File size : 2.19 GiB
Duration : 1h 29mn
Overall bit rate : 3 498 Kbps
Encoded date : UTC 2011-06-17 04:11:32
Writing application : mkvmerge v4.5.0 ('Speed of Light') сборка от Feb 15 2011 12:50:20
Writing library : libebml v1.2.0 + libmatroska v1.1.0
Video #1
ID : 1
Format : AVC
Format/Info : Advanced Video Codec
Format profile : High@L3.1
Format settings, CABAC : Yes
Format settings, ReFrames : 12 frames
Muxing mode : Container profile=Unknown@3.1
Codec ID : V_MPEG4/ISO/AVC
Duration : 1h 29mn
Bit rate : 1 765 Kbps
Nominal bit rate : 1 855 Kbps
Width : 716 pixels
Height : 432 pixels
Display aspect ratio : 2.35:1
Original display aspect ratio : 2.35:1
Frame rate : 25.000 fps
Resolution : 8 bits
Colorimetry : 4:2:0
Scan type : Progressive
Bits/(Pixel*Frame) : 0.228
Stream size : 1.10 GiB (50%)
Title : The Dancer Gambit
Writing library : x264 core 114 r1913 5fd3dce
Encoding settings : cabac=1 / ref=12 / deblock=1:-2:-1 / analyse=0x3:0x133 / me=umh / subme=10 / psy=1 / psy_rd=1.15:0.00 / mixed_ref=1 / me_range=32 / chroma_me=1 / trellis=2 / 8x8dct=1 / cqm=0 / deadzone=21,11 / fast_pskip=1 / chroma_qp_offset=-5 / threads=6 / sliced_threads=0 / nr=0 / decimate=1 / interlaced=0 / constrained_intra=0 / bframes=9 / b_pyramid=2 / b_adapt=2 / b_bias=0 / direct=3 / weightb=1 / open_gop=0 / weightp=2 / keyint=250 / keyint_min=25 / scenecut=40 / intra_refresh=0 / rc_lookahead=80 / rc=2pass / mbtree=1 / bitrate=1855 / ratetol=1.0 / qcomp=0.65 / qpmin=0 / qpmax=69 / qpstep=4 / cplxblur=20.0 / qblur=0.5 / ip_ratio=1.30 / aq=2:0.80
Audio #2
ID : 2
Format : AC-3
Format/Info : Audio Coding 3
Format_Settings_ModeExtension : CM (complete main)
Codec ID : A_AC3
Duration : 1h 29mn
Bit rate mode : Constant
Bit rate : 448 Kbps
Channel(s) : 6 channels
Channel positions : Front: L C R, Side: L R, LFE
Sampling rate : 48.0 KHz
Stream size : 287 MiB (13%)
Title : Dub
Language : Russian
Audio #3
ID : 3
Format : AC-3
Format/Info : Audio Coding 3
Format_Settings_ModeExtension : CM (complete main)
Codec ID : A_AC3
Duration : 1h 29mn
Bit rate mode : Constant
Bit rate : 448 Kbps
Channel(s) : 6 channels
Channel positions : Front: L C R, Side: L R, LFE
Sampling rate : 48.0 KHz
Stream size : 287 MiB (13%)
Title : MVO
Language : Russian
Audio #4
ID : 4
Format : AC-3
Format/Info : Audio Coding 3
Format_Settings_ModeExtension : CM (complete main)
Codec ID : A_AC3
Duration : 1h 29mn
Bit rate mode : Constant
Bit rate : 384 Kbps
Channel(s) : 6 channels
Channel positions : Front: L C R, Side: L R, LFE
Sampling rate : 48.0 KHz
Stream size : 246 MiB (11%)
Title : Eng
Audio #5
ID : 5
Format : AC-3
Format/Info : Audio Coding 3
Format_Settings_ModeExtension : CM (complete main)
Codec ID : A_AC3
Duration : 1h 29mn
Bit rate mode : Constant
Bit rate : 384 Kbps
Channel(s) : 6 channels
Channel positions : Front: L C R, Side: L R, LFE
Sampling rate : 48.0 KHz
Stream size : 246 MiB (11%)
Title : Original (Fre)
Language : French
Text #6
ID : 6
Format : UTF-8
Codec ID : S_TEXT/UTF8
Codec ID/Info : UTF-8 Plain Text
Title : Rus
Language : Russian






Поделиться:




реклама партнёра


Вернуться к началу
 Профиль Отправить личное сообщение  
 
   Похожие торренты   Автор   Торрент   Размер 
В этой теме нет новых непрочитанных сообщений. Дансер / The Dancer [Драма, 2000] DVDRip, Dub

salma3

0 | 2

1.37 ГБ

В этой теме нет новых непрочитанных сообщений. Шанхай блюз – Новый свет / Shanghai Blues, nouveau monde (Фред Гарсон / Fred (Frederic) Garson) [2012г., драма, DVB] Sub

Alfredovich

7 | 4

2.89 ГБ

В этой теме нет новых непрочитанных сообщений. По прозвищу Танцор / Прозвище Танцор / Операция «Танцор» / Her Secret Life /Code name Dancer [,Боевик, триллер, драма, приключения, 1987] DVDRip, AVO

salma3

2 | 1

1.45 ГБ

В этой теме нет новых непрочитанных сообщений. Тайный игрок / Shadow Dancer [триллер, драма, 2012] BDRip-AVC, Mvo

salma3

11 | 0

2.18 ГБ

В этой теме нет новых непрочитанных сообщений. Танцующий в пустыне / Desert Dancer [драма, биография, 2014] BDRip, Dub

salma3

279 | 54

1.46 ГБ

В этой теме нет новых непрочитанных сообщений. Танцующий в пустыне / Desert Dancer [драма, биография, 2014] BDRip-AVC, Dub

salma3

35 | 4

2.18 ГБ

В этой теме нет новых непрочитанных сообщений. Танцующий в пустыне / Desert Dancer [драма, биография, 2014] BDRemux 1080p, Dub

salma3

42 | 28

15.34 ГБ


Начать новую тему Ответить на тему  [ 1 сообщение ] 




Для Мосгорсуда, Роскомнадзора и рекламодателей:: mosgorsud-torrent[собачка]yandex.ru