Торрент файл
скачать торрент магнет ссылка Добавлен: 14 янв 2012, 22:06
Размер: 2.1 ГБ
Сидеров: 86
Личеров: 7
Автор

СообщениеДобавлено: 14 янв 2012, 22:06 

Не в сети
Супермодератор
Аватара пользователя
Дата регистрации:
11 апр 2010, 18:10
Спасибо: 5801 / 7
Сообщения: 56779
Один день / One Day



Перевод: Профессиональный (полное дублирование).субтитры: отсутствуют
Формат: DVDRip-AVC, MKV, H.264, AC3
Страна: США
Жанр: драма, мелодрама
Продолжительность: 01:42:00
Режиссер: Лоне Шерфиг / Lone Scherfig
Год выпуска: 2011

В ролях: Энн Хэтэуэй, Джим Стёрджесс, Том Мисон, Джоди Уиттакер, Тим Ки, Рейф Сполл, Жозефин Де Ла Буме, Патришия Кларксон, Кен Стотт, Хейда Рид

Описание:Эмма — романтична, остра на язык и хочет изменить мир к лучшему. Декстер — плейбой, баловень судьбы и хочет, чтобы мир принадлежал ему.

Впервые Эм и Декс встретились 15 июля на выпускном в колледже и провели вместе только один день. А потом пришла ночь, и они…решили остаться друзьями. Они будут встречаться в тот же день через год, через два. Но сколько лет должно пройти, чтобы они поверили в свою любовь и поняли, как много значил для них этот ОДИН ДЕНЬ?


________

Видео: 960x 408 (2:35:1),25,000 кадр/сек, AVC (х264), High@L3.0, ~2539 Kbps, 0.259 bit/pixel
Аудио: 48 kHz, AC3 Dolby Digital, 3/2 (L,C,R,l,r) + LFE ch, ~384 kbps


Автор РИПа:ddimmon22
Общее
Уникальный идентификатор: 209252941530596460187453329535012172658 (0x9D6CA68E0409AA14A5D3D8DF1E23F372)
Полное имя: I:\oktzbr rupu\odin_den_[tfile.ru].mkv
Формат: Matroska
Версия формата: Version 2
Размер файла: 2,10 Гбайт
Продолжительность: 1 ч. 42 м.
Общий поток: 2924 Кбит/сек
Дата кодирования: UTC 2011-10-11 11:00:36
Программа кодирования: mkvmerge v4.9.1 ('Ich will') сборка от Aug 10 2011 09:31:20
Библиотека кодирования: libebml v1.2.1 + libmatroska v1.2.0

Видео
Идентификатор: 1
Формат: AVC
Формат/Информация: Advanced Video Codec
Профиль формата: High@L3.0
Параметр CABAC формата: Да
Параметр ReFrames формата: 4 кадра
Идентификатор кодека: V_MPEG4/ISO/AVC
Продолжительность: 1 ч. 42 м.
Битрейт: 2539 Кбит/сек
Ширина: 960 пикс.
Высота: 408 пикс.
Соотношение сторон: 2,35:1
Частота кадров: 25,000 кадр/сек
Цветовое пространство: YUV
Подвыборка цветности: 4:2:0
Битовая глубина: 8 бит
Тип развёртки: Прогрессивная
Бит/(Пиксели*Кадры): 0.259
Размер потока: 1,78 Гбайт (85%)
Библиотека кодирования: x264 core 116 r2074 2641b9e
Настройки программы: cabac=1 / ref=3 / deblock=1:0:0 / analyse=0x3:0x113 / me=hex / subme=7 / psy=1 / psy_rd=1.00:0.00 / mixed_ref=1 / me_range=16 / chroma_me=1 / trellis=1 / 8x8dct=1 / cqm=0 / deadzone=21,11 / fast_pskip=1 / chroma_qp_offset=-2 / threads=6 / sliced_threads=0 / nr=0 / decimate=1 / interlaced=0 / bluray_compat=0 / constrained_intra=0 / bframes=3 / b_pyramid=2 / b_adapt=1 / b_bias=0 / direct=1 / weightb=1 / open_gop=0 / weightp=2 / keyint=250 / keyint_min=25 / scenecut=40 / intra_refresh=0 / rc_lookahead=40 / rc=2pass / mbtree=1 / bitrate=2539 / ratetol=1.0 / qcomp=0.60 / qpmin=0 / qpmax=69 / qpstep=4 / cplxblur=20.0 / qblur=0.5 / ip_ratio=1.40 / aq=1:1.00

Аудио
Идентификатор: 2
Формат: AC-3
Формат/Информация: Audio Coding 3
Расширение режима: CM (complete main)
Идентификатор кодека: A_AC3
Продолжительность: 1 ч. 42 м.
Вид битрейта: Постоянный
Битрейт: 384 Кбит/сек
Каналы: 6 каналов
Расположение каналов: Front: L C R, Side: L R, LFE
Частота: 48,0 КГц
Битовая глубина: 16 бит
Метод сжатия: С потерями
Размер потока: 283 Мбайт (13%)











Поделиться:




реклама партнёра


Вернуться к началу
 Профиль Отправить личное сообщение  
 
   Похожие торренты   Автор   Торрент   Размер 
В этой теме нет новых непрочитанных сообщений. Клуб бунтарей / The Riot Club (Лоне Шерфиг) [триллер, драма, 2014] HDRip, dvo

Dracon

6 | 3

1.37 ГБ

В этой теме нет новых непрочитанных сообщений. Клуб бунтарей / The Riot Club (Лоне Шерфиг) [триллер, драма, 2014] BDRip 720p, dvo

Dracon

4 | 3

5.98 ГБ

В этой теме нет новых непрочитанных сообщений. Один на один / Il-dae-il (Ким Ки Дук) [Драма, 2014] WebRip, dvo

Dracon

2 | 0

1.37 ГБ

В этой теме нет новых непрочитанных сообщений. Один злодей / Ek Villain [Боевик, триллер, мелодрама, 2014] DVDRip, Mvo+Sub

salma3

53 | 8

2.19 ГБ

В этой теме нет новых непрочитанных сообщений. The Lone Crows - The Lone Crows [2012,Hard Rock,Hard Blues Rock,MP3]

PriZraK

0 | 1

130.63 МБ

В этой теме нет новых непрочитанных сообщений. Один в один! Битва сезонов [01 сезон: 01-02 выпуски] [ТВ-шоу, 2016] SATRip

Dracon

0 | 0

4.17 ГБ

В этой теме нет новых непрочитанных сообщений. Уцелевший / Lone Survivor [боевик, триллер, драма, военный, 2013] DVDScr, dvo

Dracon

3309 | 122

1.37 ГБ


Начать новую тему Ответить на тему  [ 1 сообщение ] 




Для Мосгорсуда, Роскомнадзора и рекламодателей:: mosgorsud-torrent[собачка]yandex.ru