Торрент файл
скачать торрент магнет ссылка Добавлен: 14 янв 2012, 22:04
Размер: 2.1 ГБ
Сидеров: 3
Личеров: 5
Автор

СообщениеДобавлено: 14 янв 2012, 22:04 

Не в сети
Супермодератор
Аватара пользователя
Дата регистрации:
11 апр 2010, 18:10
Спасибо: 5799 / 7
Сообщения: 56779
Человек без лица / The Man Without a Face

Перевод: Профессиональный (многоголосый, закадровый), cубтитры: Русские (полные, отключаемые)
Формат: HDRip, MKV, H.264, AC3
Страна: США
Режиссер: Мэл Гибсон
Жанр: драма
Продолжительность: 01:54:42
Год выпуска: 1993
В ролях: Мэл Гибсон, Ник Стал, Маргарет Уиттон, Фэй Мастерсон, Габи Хоффманн, Джеффри Льюис, Ричард Мейсер, Майкл ДеЛуис, Итэн Филлипс, Джин Де Баэр
Описание: Ненавистная жизнь с матерью и двумя сестрами от разных отцов сделала 12-летнего Чака циником и нахалом. Но однажды он знакомится с Дастином Маклаудом-таинственным отшельником с обезображенным лицом, о котором ходят самые невероятные слухи. И оказалось, что не все еще потеряно для обоих.

Видео: 1276x720 (16:9), 24 fps, AVC (х264), High@L4.1 ~2300 kbps avg, 0.099
Аудио: 48 kHz, AC-3, 6 ch, ~384.00 kbps avg


Автор РИПа:
Общее
Уникальный идентификатор : 189924036108644187145972040593263232525 (0x8EE209F0C42BA532B572E8644F3B060D)
Полное имя : f:\Downloads\the_man_without_a_face_[tfile.ru].mkv
Формат : Matroska
Размер файла : 2,10 Гбайт
Продолжительность : 1 ч. 54 м.
Общий поток : 2615 Кбит/сек
Дата кодирования : UTC 2011-10-13 11:09:29
Программа кодирования : mkvmerge v4.6.0 ('Still Crazy After All These Years') сборка от Mar 10 2011 02:50:32
Библиотека кодирования : libebml v1.2.0 + libmatroska v1.1.0

Видео
Идентификатор : 1
Формат : AVC
Формат/Информация : Advanced Video Codec
Профиль формата : High@L4.1
Параметр CABAC формата : Да
Параметр ReFrames формата : 3 кадра
Режим смешивания : Header stripping
Идентификатор кодека : V_MPEG4/ISO/AVC
Продолжительность : 1 ч. 54 м.
Битрейт : 2179 Кбит/сек
Номинальный битрейт : 2300 Кбит/сек
Ширина : 1276 пикс.
Высота : 720 пикс.
Соотношение сторон : 16:9
Режим частоты кадров : Переменный
Частота кадров : 24,000 кадр/сек
Цветовое пространство : YUV
Подвыборка цветности : 4:2:0
Битовая глубина : 8 бит
Тип развёртки : Прогрессивная
Бит/(Пиксели*Кадры) : 0.099
Размер потока : 1,75 Гбайт (83%)
Библиотека кодирования : x264 core 116 r2019M 9cc407d
Настройки программы : cabac=1 / ref=3 / deblock=1:-1:-1 / analyse=0x3:0x133 / me=hex / subme=7 / psy=1 / psy_rd=1.00:0.15 / mixed_ref=1 / me_range=16 / chroma_me=1 / trellis=1 / 8x8dct=1 / cqm=0 / deadzone=21,11 / fast_pskip=1 / chroma_qp_offset=-3 / threads=8 / sliced_threads=0 / nr=0 / decimate=1 / interlaced=0 / bluray_compat=0 / constrained_intra=0 / bframes=3 / b_pyramid=1 / b_adapt=2 / b_bias=0 / direct=3 / weightb=1 / open_gop=0 / weightp=2 / keyint=240 / keyint_min=24 / scenecut=40 / intra_refresh=0 / rc_lookahead=40 / rc=abr / mbtree=1 / bitrate=2300 / ratetol=1.0 / qcomp=0.60 / qpmin=10 / qpmax=51 / qpstep=4 / ip_ratio=1.40 / aq=1:1.00
Язык : English

Аудио
Идентификатор : 2
Формат : AC-3
Формат/Информация : Audio Coding 3
Расширение режима : CM (complete main)
Режим смешивания : Header stripping
Идентификатор кодека : A_AC3
Продолжительность : 1 ч. 54 м.
Вид битрейта : Постоянный
Битрейт : 384 Кбит/сек
Каналы : 6 каналов
Расположение каналов : Front: L C R, Side: L R, LFE
Частота : 48,0 КГц
Битовая глубина : 16 бит
Метод сжатия : С потерями
Размер потока : 315 Мбайт (15%)
Заголовок : MVO
Язык : Russian

Текст
Идентификатор : 3
Формат : UTF-8
Идентификатор кодека : S_TEXT/UTF8
Идентификатор кодека/Информация : UTF-8 Plain Text
Язык : Russian

Меню
00:00:00.000 : en:00:00:00.000
00:11:59.458 : en:00:11:59.458
00:24:51.708 : en:00:24:51.708
00:42:09.875 : en:00:42:09.875
00:54:38.042 : en:00:54:38.042
01:08:15.667 : en:01:08:15.667
01:22:40.000 : en:01:22:40.000
01:38:40.333 : en:01:38:40.333














Поделиться:




реклама партнёра


Вернуться к началу
 Профиль Отправить личное сообщение  
 
   Похожие торренты   Автор   Торрент   Размер 
В этой теме нет новых непрочитанных сообщений. Человек без лица / The Man Without a Face [Драма, 1993] BDRip 1080p, 2Mvo+Avo+Sub

salma3

11 | 3

9.54 ГБ

В этой теме нет новых непрочитанных сообщений. Без лица / Face Off [02x01-05] [2012, Реалити-шоу, WEB-DLRip 720p | ViruseProject]

Nickolas3435

3 | 3

6.79 ГБ

В этой теме нет новых непрочитанных сообщений. Без лица / Face Off [08x01-02 из 14] ( Реалити-шоу, 2015) HDTVRip 720р | ViruseProject

marya111

0 | 0

1.96 ГБ

В этой теме нет новых непрочитанных сообщений. Не тот человек / The Wrong Man [триллер, мелодрама, 1993] VHSRip, Avo

salma3

27 | 3

1.03 ГБ

В этой теме нет новых непрочитанных сообщений. My Face /#My Face / Мое Лицо (MimeFreak / ArchAngel) (Remy LaCroix, Jada Stevens, Maddy O'Reilly, Veruca James, Karmen Karma...) [2015 г., Blowjobs, Cumshots, Facials, Gonzo, DVDRip 396p]

friizze

2 | 3

1.45 ГБ

В этой теме нет новых непрочитанных сообщений. Doctor Speed - Face to Face [2012, Speed, Heavy Metal, MP3]

PriZraK

0 | 1

105.24 МБ

В этой теме нет новых непрочитанных сообщений. Лицо ангела / The Face of an Angel (Майкл Уинтерботтом) [Триллер, 2014] HDRip, Mvo

Dracon

401 | 21

1.36 ГБ


Начать новую тему Ответить на тему  [ 1 сообщение ] 




Для Мосгорсуда, Роскомнадзора и рекламодателей:: mosgorsud-torrent[собачка]yandex.ru