Торрент файл
скачать торрент магнет ссылка Добавлен: 14 янв 2012, 22:04
Размер: 1.45 ГБ
Сидеров: 116
Личеров: 5
Автор

СообщениеДобавлено: 14 янв 2012, 22:04 

Не в сети
Супермодератор
Аватара пользователя
Дата регистрации:
11 апр 2010, 18:10
Спасибо: 5802 / 7
Сообщения: 56779
Город Бога / Cidade de Deus



Перевод: Профессиональный (многоголосый, закадровый).субтитры: отсутствуют
Формат: HDRip-AVC, MKV, H.264, AC3
Страна: Франция, Бразилия
Жанр: драма, криминал
Продолжительность: 02:09:00
Режиссер: Фернанду Мейреллиш, Катя Люнд
Год выпуска: 2002

В ролях: Александр Родригез, Леандро Фирмино, Феллипе Хаагенсен, Дуглас Силва, Джонатан Хаагенсен, Матеус Нахтергейл, Сеу Жоржи, Жефехандер Суплино, Алиси Брага, Эмерсон Гомес

Описание:60-е годы XX века. «Город Бога» — квартал в Рио-де-Жанейро, где живут главные герои — 8-летний Ракета, мечтающий стать фотографом, и его одногодок Дадинью. Дадинью принимает участие в вооруженном ограблении, организованном живущим по соседству гангстером Кабалейрой; с согласия Кабалейры он совершает свое первое убийство.

70-е годы. Ракета постоянно балансирует между мелкими правонарушениями и честной жизнью. На счету у Дадинью уже несколько убийств. Он возглавляет банду, которой управляет, используя хитрость и хладнокровное предательство. Поняв, что настоящая власть и большие деньги может дать только контроль над торговлей наркотиками в их квартале, он безжалостно идет к своей цели.

80-е годы. Ракета наконец получает фотоаппарат и осуществляет свою детскую мечту. Мечта Дадинью тоже сбылась: в 18 лет он стал самым крутым торговцем наркотиками в Рио.

Вместе со своей армией юных хулиганов Дадинью безраздельно правит в квартале до тех пор, пока Мане Галинья не поклялся отомстить ему за то, что тот изнасиловал его подружку, и не решил убить его, чего бы это ни стоило. В фавеле начинается война…


________

Видео: 944 x 512 (1:84:3),23,976 кадр/сек, AVC (х264), High@L3.1, ~ 1223 Kbps, 0.106 bit/pixel
Аудио: 48 kHz, AC3 Dolby Digital, 3/2 (L,C,R,l,r) + LFE ch, ~384 kbps


Автор РИПа:ddimmon22
Общее
Уникальный идентификатор: 195573479173679398622270462839545529441 (0x932214FD173AECFA8CDD3DF464C60461)
Полное имя: I:\oktzbr rupu\cidade_de_deus_[tfile.ru].mkv
Формат: Matroska
Версия формата: Version 2
Размер файла: 1,45 Гбайт
Продолжительность: 2 ч. 9 м.
Общий поток: 1608 Кбит/сек
Дата кодирования: UTC 2011-10-14 08:55:56
Программа кодирования: mkvmerge v4.9.1 ('Ich will') сборка от Aug 10 2011 09:31:20
Библиотека кодирования: libebml v1.2.1 + libmatroska v1.2.0

Видео
Идентификатор: 1
Формат: AVC
Формат/Информация: Advanced Video Codec
Профиль формата: High@L3.1
Параметр CABAC формата: Да
Параметр ReFrames формата: 4 кадра
Идентификатор кодека: V_MPEG4/ISO/AVC
Продолжительность: 2 ч. 9 м.
Битрейт: 1223 Кбит/сек
Ширина: 944 пикс.
Высота: 512 пикс.
Соотношение сторон: 16:9
Частота кадров: 23,976 кадр/сек
Цветовое пространство: YUV
Подвыборка цветности: 4:2:0
Битовая глубина: 8 бит
Тип развёртки: Прогрессивная
Бит/(Пиксели*Кадры): 0.106
Размер потока: 1,08 Гбайт (74%)
Библиотека кодирования: x264 core 116 r2074 2641b9e
Настройки программы: cabac=1 / ref=3 / deblock=1:-1:-1 / analyse=0x3:0x133 / me=umh / subme=7 / psy=1 / psy_rd=1.00:0.10 / mixed_ref=1 / me_range=16 / chroma_me=1 / trellis=2 / 8x8dct=1 / cqm=0 / deadzone=21,11 / fast_pskip=0 / chroma_qp_offset=-3 / threads=12 / sliced_threads=0 / nr=0 / decimate=1 / interlaced=0 / bluray_compat=0 / constrained_intra=0 / bframes=3 / b_pyramid=2 / b_adapt=1 / b_bias=0 / direct=1 / weightb=1 / open_gop=0 / weightp=2 / keyint=250 / keyint_min=23 / scenecut=40 / intra_refresh=0 / rc_lookahead=40 / rc=2pass / mbtree=1 / bitrate=1223 / ratetol=1.0 / qcomp=0.60 / qpmin=0 / qpmax=69 / qpstep=4 / cplxblur=20.0 / qblur=0.5 / ip_ratio=1.40 / aq=1:1.00

Аудио
Идентификатор: 2
Формат: AC-3
Формат/Информация: Audio Coding 3
Расширение режима: CM (complete main)
Идентификатор кодека: A_AC3
Продолжительность: 2 ч. 9 м.
Вид битрейта: Постоянный
Битрейт: 384 Кбит/сек
Каналы: 6 каналов
Расположение каналов: Front: L C R, Side: L R, LFE
Частота: 48,0 КГц
Битовая глубина: 16 бит
Метод сжатия: С потерями
Размер потока: 356 Мбайт (24%)












Поделиться:




реклама партнёра


Вернуться к началу
 Профиль Отправить личное сообщение  
 
   Похожие торренты   Автор   Торрент   Размер 
В этой теме нет новых непрочитанных сообщений. Дочь Бога / Exposed [Триллер, драма, криминал, детектив, 2016] HDRip-AVC, mVO [iTunes]

marya111

79 | 10

749.08 МБ

В этой теме нет новых непрочитанных сообщений. Одно движение Божье / Ход Бога / God's One Move / The Divine Move [боевик, драма, криминал, 2014] HDRip, dvo

Dracon

468 | 22

745.82 МБ

В этой теме нет новых непрочитанных сообщений. Город отмороженных (Белый город, Замерзший город) / Valkoinen kaupunki (Аку Лоухимиес / Aku Louhimies) [2006г., Финляндия, драма, DVDRip] avo

Alfredovich

2 | 2

1.39 ГБ

В этой теме нет новых непрочитанных сообщений. Дочь Бога / Exposed (Драма, 2016) HDRip, Mvo [iTunes]

marya111

988 | 97

1.41 ГБ

В этой теме нет новых непрочитанных сообщений. Восточный ветер 2 / Ostwind 2 (Катя фон Гарнье) [драма, мелодрама, приключения, семейный, 2015] HDRip [ViruseProject]

Dracon

927 | 97

1.47 ГБ

В этой теме нет новых непрочитанных сообщений. Спасение Бога / Saving God [Драма, криминал, 2008] BDRip 1080p, Mvo

salma3

9 | 4

7.47 ГБ

В этой теме нет новых непрочитанных сообщений. Дочь Бога / Exposed [триллер, драма, криминал, детектив, 2016] BDRip, mvo [iTunes]

marya111

141 | 11

1.41 ГБ


Начать новую тему Ответить на тему  [ 1 сообщение ] 




Для Мосгорсуда, Роскомнадзора и рекламодателей:: mosgorsud-torrent[собачка]yandex.ru