Торрент файл
скачать торрент магнет ссылка Добавлен: 14 янв 2012, 22:04
Размер: 2.1 ГБ
Сидеров: 3
Личеров: 5
Автор

СообщениеДобавлено: 14 янв 2012, 22:04 

Не в сети
Супермодератор
Аватара пользователя
Дата регистрации:
11 апр 2010, 18:10
Спасибо: 5802 / 7
Сообщения: 56779
Удушье / Choke



Перевод: Профессиональный (многоголосый, закадровый).субтитры: отсутствуют
Формат: HDRip-AVC, MKV, H.264, AC3
Страна: США
Жанр: драма, комедия
Продолжительность: 01:31:00
Режиссер: Кларк Грегг / Clark Gregg
Год выпуска: 2008

В ролях: Сэм Рокуэлл, Кэтрин Александр, Теодорина Белло, Кейт Блумберг, Йон Бобо, Уилли Бурк, Хезер Бёрнс, Дэвид Волос-Фонтено, Мэтт Джералд, Кларк Грегг

Описание:Экранизация романа Чака Паланика, о пресной жизни мошенника, подрабатывающего где придется и время от времени разыгрывающего приступы удушья в ресторанах, паразитируя на «спасителях», поддерживающих его деньгами. Кроме того главный герой является сексоголиком, а его полоумная мать скрывает правду о его рождении.

________

Видео: 1280 x 696 (1:83:9),23,976 кадр/сек, AVC (х264), High@L3.1, ~ 2894 Kbps, 0.135 bit/pixel
Аудио: 48 kHz, AC3 Dolby Digital, 3/2 (L,C,R,l,r) + LFE ch, ~384 kbps


Автор РИПа:ddimmon22
Общее
Уникальный идентификатор: 212016401627518690214505165339456704267 (0x9F80DFA82743A4D2AE6CA2815A000F0B)
Полное имя: I:\oktzbr rupu\choke_[tfile.ru].mkv
Формат: Matroska
Версия формата: Version 2
Размер файла: 2,10 Гбайт
Продолжительность: 1 ч. 31 м.
Общий поток: 3273 Кбит/сек
Дата кодирования: UTC 2011-10-14 11:29:44
Программа кодирования: mkvmerge v4.9.1 ('Ich will') сборка от Aug 10 2011 09:31:20
Библиотека кодирования: libebml v1.2.1 + libmatroska v1.2.0

Видео
Идентификатор: 1
Формат: AVC
Формат/Информация: Advanced Video Codec
Профиль формата: High@L3.1
Параметр CABAC формата: Да
Параметр ReFrames формата: 4 кадра
Идентификатор кодека: V_MPEG4/ISO/AVC
Продолжительность: 1 ч. 31 м.
Битрейт: 2894 Кбит/сек
Ширина: 1280 пикс.
Высота: 696 пикс.
Соотношение сторон: 16:9
Частота кадров: 23,976 кадр/сек
Цветовое пространство: YUV
Подвыборка цветности: 4:2:0
Битовая глубина: 8 бит
Тип развёртки: Прогрессивная
Бит/(Пиксели*Кадры): 0.135
Размер потока: 1,81 Гбайт (86%)
Библиотека кодирования: x264 core 116 r2074 2641b9e
Настройки программы: cabac=1 / ref=3 / deblock=1:-1:-1 / analyse=0x3:0x133 / me=umh / subme=7 / psy=1 / psy_rd=1.00:0.10 / mixed_ref=1 / me_range=16 / chroma_me=1 / trellis=2 / 8x8dct=1 / cqm=0 / deadzone=21,11 / fast_pskip=0 / chroma_qp_offset=-3 / threads=12 / sliced_threads=0 / nr=0 / decimate=1 / interlaced=0 / bluray_compat=0 / constrained_intra=0 / bframes=3 / b_pyramid=2 / b_adapt=1 / b_bias=0 / direct=1 / weightb=1 / open_gop=0 / weightp=2 / keyint=250 / keyint_min=23 / scenecut=40 / intra_refresh=0 / rc_lookahead=40 / rc=2pass / mbtree=1 / bitrate=2894 / ratetol=1.0 / qcomp=0.60 / qpmin=0 / qpmax=69 / qpstep=4 / cplxblur=20.0 / qblur=0.5 / ip_ratio=1.40 / aq=1:1.00

Аудио
Идентификатор: 2
Формат: AC-3
Формат/Информация: Audio Coding 3
Расширение режима: CM (complete main)
Идентификатор кодека: A_AC3
Продолжительность: 1 ч. 31 м.
Вид битрейта: Постоянный
Битрейт: 384 Кбит/сек
Каналы: 6 каналов
Расположение каналов: Front: L C R, Side: L R, LFE
Частота: 48,0 КГц
Битовая глубина: 16 бит
Метод сжатия: С потерями
Размер потока: 252 Мбайт (12%)










Поделиться:




реклама партнёра


Вернуться к началу
 Профиль Отправить личное сообщение  
 
   Похожие торренты   Автор   Торрент   Размер 
В этой теме нет новых непрочитанных сообщений. Удушье / Choke [драма, комедия, 2008] BDRip 720p, Mvo

salma3

121 | 5

5.76 ГБ

В этой теме нет новых непрочитанных сообщений. Белая птица в метели / White Bird in a Blizzard (Грегг Араки) [триллер, драма, 2014] HDRip, avo

Dracon

362 | 11

1.36 ГБ

В этой теме нет новых непрочитанных сообщений. Белая птица в метели / White Bird in a Blizzard (Грегг Араки) [триллер, драма, 2014] BDRip 720p, avo+sub

Dracon

0 | 2

4.6 ГБ

В этой теме нет новых непрочитанных сообщений. Gregg Tripp - Tempus Edax Rerum [1991, Album-Oriented Rock, MP3]

PriZraK

0 | 1

100.79 МБ

В этой теме нет новых непрочитанных сообщений. Опасное трио / Lewis & Clark & George [триллер, комедия, криминал, 1997] DVDRip, Mvo+Avo

salma3

126 | 18

1.37 ГБ

В этой теме нет новых непрочитанных сообщений. Опасная территория / Choke Canyon [боевик, фантастика, приключения, 1986] DVDRip, Mvo [ВГТРК]

salma3

130 | 21

1.45 ГБ

В этой теме нет новых непрочитанных сообщений. Удушье - Признаки жизни [2011, Modern Metal, Thrash Metal, Metalcore, MP3]

PriZraK

0 | 1

63.74 МБ


Начать новую тему Ответить на тему  [ 1 сообщение ] 




Для Мосгорсуда, Роскомнадзора и рекламодателей:: mosgorsud-torrent[собачка]yandex.ru