Торрент файл
скачать торрент магнет ссылка Добавлен: 14 янв 2012, 22:04
Размер: 1.45 ГБ
Сидеров: 15
Личеров: 4
Автор

СообщениеДобавлено: 14 янв 2012, 22:04 

Не в сети
Супермодератор
Аватара пользователя
Дата регистрации:
11 апр 2010, 18:10
Спасибо: 5801 / 7
Сообщения: 56779
Коктейль /Cocktail



Перевод: Профессиональный (многоголосый, закадровый),субтитры: отсутствуют
Формат: DVDRip-AVC, MKV, H.264, AC3
Страна: США
Жанр: мелодрама, комедия
Продолжительность: 01:39:00
Режиссер: Роджер Дональдсон / Roger Donaldson
Год выпуска: 1988

В ролях: Том Круз, Брайан Браун, Элизабет Шу, Лоуренс Лакинбилл, Келли Линч, Джина Гершон, Рон Дин, Роберт Донли, Эллен Фоли

Описание:Молодой, самоуверенный и амбициозный Брайан Фланаган всегда мечтал сделать карьеру, которая дала бы ему власть, развлечения и быстрые деньги. Однако когда выясняется, что крупные фирмы вовсе не спешат брать его на работу, холодная реальность опустевшего кошелька заставляет его согласиться на работу бармена.

Растворившись в соблазнительном мире легких денег и секса, Брайан становится настоящей звездой ночного Манхэттена. Все меняется, когда он влюбляется в независимую и уверенную в себе Джордан, которая совсем не похожа на его смазливых клиенток. Наконец он отыскал женщину, которая знает, что такое настоящая любовь, а самое главное, кто же такой на самом деле Брайан Фланаган.


________

Видео: 976 x 416 (2:35:1),25,000 кадр/сек, AVC (х264), High@L3.0, ~ 1902 Kbps,0.187 bit/pixel
Аудио: 48 kHz, AC3 Dolby Digital, 2/0 (L,R)ch, ~192 kbps


Автор РИПа:ddimmon22
Общее
Уникальный идентификатор: 218040267243905710433145561473926418691 (0xA40907297B87C7E5B1FE1A685B41D103)
Полное имя: I:\oktzbr rupu\cocktail_[tfile.ru].mkv
Формат: Matroska
Версия формата: Version 2
Размер файла: 1,45 Гбайт
Продолжительность: 1 ч. 39 м.
Общий поток: 2095 Кбит/сек
Дата кодирования: UTC 2011-10-15 11:19:05
Программа кодирования: mkvmerge v4.9.1 ('Ich will') сборка от Aug 10 2011 09:31:20
Библиотека кодирования: libebml v1.2.1 + libmatroska v1.2.0

Видео
Идентификатор: 1
Формат: AVC
Формат/Информация: Advanced Video Codec
Профиль формата: High@L3.0
Параметр CABAC формата: Да
Параметр ReFrames формата: 4 кадра
Идентификатор кодека: V_MPEG4/ISO/AVC
Продолжительность: 1 ч. 39 м.
Битрейт: 1902 Кбит/сек
Ширина: 976 пикс.
Высота: 416 пикс.
Соотношение сторон: 2,35:1
Частота кадров: 25,000 кадр/сек
Цветовое пространство: YUV
Подвыборка цветности: 4:2:0
Битовая глубина: 8 бит
Тип развёртки: Прогрессивная
Бит/(Пиксели*Кадры): 0.187
Размер потока: 1,29 Гбайт (89%)
Библиотека кодирования: x264 core 116 r2074 2641b9e
Настройки программы: cabac=1 / ref=3 / deblock=1:0:0 / analyse=0x3:0x113 / me=hex / subme=7 / psy=1 / psy_rd=1.00:0.00 / mixed_ref=1 / me_range=16 / chroma_me=1 / trellis=1 / 8x8dct=1 / cqm=0 / deadzone=21,11 / fast_pskip=1 / chroma_qp_offset=-2 / threads=6 / sliced_threads=0 / nr=0 / decimate=1 / interlaced=0 / bluray_compat=0 / constrained_intra=0 / bframes=3 / b_pyramid=2 / b_adapt=1 / b_bias=0 / direct=1 / weightb=1 / open_gop=0 / weightp=2 / keyint=250 / keyint_min=25 / scenecut=40 / intra_refresh=0 / rc_lookahead=40 / rc=2pass / mbtree=1 / bitrate=1902 / ratetol=1.0 / qcomp=0.60 / qpmin=0 / qpmax=69 / qpstep=4 / cplxblur=20.0 / qblur=0.5 / ip_ratio=1.40 / aq=1:1.00

Аудио
Идентификатор: 2
Формат: AC-3
Формат/Информация: Audio Coding 3
Расширение режима: CM (complete main)
Идентификатор кодека: A_AC3
Продолжительность: 1 ч. 39 м.
Вид битрейта: Постоянный
Битрейт: 192 Кбит/сек
Каналы: 2 канала
Расположение каналов: Front: L R
Частота: 48,0 КГц
Битовая глубина: 16 бит
Метод сжатия: С потерями
Размер потока: 136 Мбайт (9%)













Поделиться:




реклама партнёра


Вернуться к началу
 Профиль Отправить личное сообщение  
 
   Похожие торренты   Автор   Торрент   Размер 
В этой теме нет новых непрочитанных сообщений. Человек ноября / The November Man (Роджер Дональдсон) [2014, боевик, триллер, криминал, CAMRip] Dub

Nickolas3435

55 | 2

1.38 ГБ

В этой теме нет новых непрочитанных сообщений. Человек ноября / The November Man (Роджер Дональдсон) [2014, Боевик, триллер, криминал, CAMRip *PROPER*] Dub

Nickolas3435

52 | 3

1.46 ГБ

В этой теме нет новых непрочитанных сообщений. У нее будет ребенок / She's Having a Baby [мелодрама, комедия, 1988] DVDRip, Dvo

salma3

12 | 3

1.45 ГБ

В этой теме нет новых непрочитанных сообщений. Космический коктейль / Space Milkshake [фантастика, комедия, 2012] HDTVRip, Dvo

salma3

8 | 3

1.36 ГБ

В этой теме нет новых непрочитанных сообщений. Изюминка / Punchline [Драма, комедия, мелодрама, 1988] WEB-DL 720p, Mvo+Avo+Sub

salma3

29 | 0

3.83 ГБ

В этой теме нет новых непрочитанных сообщений. Милая ложь / Sweet Lies [Мелодрама, комедия, 1988] HDTVRip, Dvo [НТВ+]

salma3

42 | 8

1.36 ГБ

В этой теме нет новых непрочитанных сообщений. Милая ложь / Sweet Lies [Мелодрама, комедия, 1988] HDTVRip-AVC, Dvo [НТВ+]

salma3

20 | 3

1.52 ГБ


Начать новую тему Ответить на тему  [ 1 сообщение ] 




Для Мосгорсуда, Роскомнадзора и рекламодателей:: mosgorsud-torrent[собачка]yandex.ru