Торрент файл
скачать торрент магнет ссылка Добавлен: 14 янв 2012, 22:04
Размер: 2.1 ГБ
Сидеров: 32
Личеров: 4
Автор

СообщениеДобавлено: 14 янв 2012, 22:04 

Не в сети
Супермодератор
Аватара пользователя
Дата регистрации:
11 апр 2010, 18:10
Спасибо: 5801 / 7
Сообщения: 56779
Интуиция /Serendipity



Перевод: Профессиональный (полное дублирование),субтитры: отсутствуют
Формат: DVDRip-AVC, MKV, H.264, AC3
Страна: США
Жанр: мелодрама, комедия
Продолжительность: 01:30:00
Режиссер: Питер Челсом / Peter Chelsom
Год выпуска: 2001

В ролях: Джон Кьюсак, Кейт Бекинсейл, Джереми Пивен, Молли Шеннон, Майкл Джуарино мл., Юджин Леви, Кристал Бок, Стефен Брюс, Дэвид Спэрроу, Гари Гербрандт

Описание:В один суматошный зимний день, посреди нью-йоркской толпы Джонатан встретил Сару. Два незнакомых человека в объятом предновогодней лихорадкой городе обнаруживают, что их неодолимо тянет друг к другу.

И они решают проверить судьбу: он пишет свой телефон на банкноте, она — в книге. Купюру разменивают, а книгу сдают букинисту. Джонатан и Сара уверены, что скоро увидятся вновь. Но коварная судьба распорядилась по-своему.


________

Видео: 1008 x 424 (2:40:1),23,976 кадр/сек, AVC (х264), High@L3.1, ~ 2930 Kbps, 0.286 bit/pixel
Аудио: 48 kHz, AC3 Dolby Digital, 3/2 (L,C,R,l,r) + LFE ch, ~384 kbps


Автор РИПа:ddimmon22
Общее
Уникальный идентификатор: 230593006113610011170235409094816980884 (0xAD7A98F8A58BFC0D8C87694454BE5F94)
Полное имя: I:\oktzbr rupu\serendipity_[tfile.ru].mkv
Формат: Matroska
Версия формата: Version 2
Размер файла: 2,10 Гбайт
Продолжительность: 1 ч. 30 м.
Общий поток: 3315 Кбит/сек
Дата кодирования: UTC 2011-10-16 00:05:41
Программа кодирования: mkvmerge v4.9.1 ('Ich will') сборка от Aug 10 2011 09:31:20
Библиотека кодирования: libebml v1.2.1 + libmatroska v1.2.0

Видео
Идентификатор: 1
Формат: AVC
Формат/Информация: Advanced Video Codec
Профиль формата: High@L3.1
Параметр CABAC формата: Да
Параметр ReFrames формата: 4 кадра
Идентификатор кодека: V_MPEG4/ISO/AVC
Продолжительность: 1 ч. 30 м.
Битрейт: 2930 Кбит/сек
Ширина: 1008 пикс.
Высота: 424 пикс.
Соотношение сторон: 2,40:1
Частота кадров: 23,976 кадр/сек
Цветовое пространство: YUV
Подвыборка цветности: 4:2:0
Битовая глубина: 8 бит
Тип развёртки: Прогрессивная
Бит/(Пиксели*Кадры): 0.286
Размер потока: 1,82 Гбайт (86%)
Библиотека кодирования: x264 core 116 r2074 2641b9e
Настройки программы: cabac=1 / ref=3 / deblock=1:-1:-1 / analyse=0x3:0x133 / me=umh / subme=7 / psy=1 / psy_rd=1.00:0.10 / mixed_ref=1 / me_range=16 / chroma_me=1 / trellis=2 / 8x8dct=1 / cqm=0 / deadzone=21,11 / fast_pskip=0 / chroma_qp_offset=-3 / threads=12 / sliced_threads=0 / nr=0 / decimate=1 / interlaced=0 / bluray_compat=0 / constrained_intra=0 / bframes=3 / b_pyramid=2 / b_adapt=1 / b_bias=0 / direct=1 / weightb=1 / open_gop=0 / weightp=2 / keyint=250 / keyint_min=23 / scenecut=40 / intra_refresh=0 / rc_lookahead=40 / rc=2pass / mbtree=1 / bitrate=2930 / ratetol=1.0 / qcomp=0.60 / qpmin=0 / qpmax=69 / qpstep=4 / cplxblur=20.0 / qblur=0.5 / ip_ratio=1.40 / aq=1:1.00

Аудио
Идентификатор: 2
Формат: AC-3
Формат/Информация: Audio Coding 3
Расширение режима: CM (complete main)
Идентификатор кодека: A_AC3
Продолжительность: 1 ч. 30 м.
Вид битрейта: Постоянный
Битрейт: 384 Кбит/сек
Каналы: 6 каналов
Расположение каналов: Front: L C R, Side: L R, LFE
Частота: 48,0 КГц
Битовая глубина: 16 бит
Метод сжатия: С потерями
Размер потока: 249 Мбайт (12%)












Поделиться:




реклама партнёра


Вернуться к началу
 Профиль Отправить личное сообщение  
 
   Похожие торренты   Автор   Торрент   Размер 
В этой теме нет новых непрочитанных сообщений. От всего сердца / All of My Heart (Питер ДеЛуиз /Peter DeLuise) [2015г., мелодрама, комедия, HDTVRip 720p] avo

Alfredovich

722 | 25

1.33 ГБ

В этой теме нет новых непрочитанных сообщений. Они все смеялись / They all laughed (Питер Богданович / Peter Bogdanovich) [1981г., комедия, DVDRip] MVO

Alfredovich

10 | 3

1.46 ГБ

В этой теме нет новых непрочитанных сообщений. Путешествие Гектора в поисках счастья / Hector and the Search for Happiness (Питер Челсом) [Драма, комедия, приключения, 2014] HDRip, Dub [iTunes]

Dracon

108 | 4

1.46 ГБ

В этой теме нет новых непрочитанных сообщений. Путешествие Гектора в поисках счастья / Hector and the Search for Happiness (Питер Челсом) [Драма, комедия, приключения, 2014] HDRip, Dub [iTunes]

Dracon

5 | 5

2.06 ГБ

В этой теме нет новых непрочитанных сообщений. Путешествие Гектора в поисках счастья / Hector and the Search for Happiness (Питер Челсом) [Драма, комедия, приключения, 2014] BDRip 720p, Dub [iTunes]

Dracon

22 | 6

4.68 ГБ

В этой теме нет новых непрочитанных сообщений. Безумные подмостки / Не шуметь! / Noises off! (Питер Богданович / Peter Bogdanovich) [1992г., комедия, HDTVRip-AVC] 2xMVO + DVO + AVO

Alfredovich

32 | 1

3.42 ГБ

В этой теме нет новых непрочитанных сообщений. Пусть получит своё / Let Him Have It (Питер Медак / Peter Medak) [1991г., Франция, криминальная драма, DVDRip] AVO

Alfredovich

0 | 0

1.45 ГБ


Начать новую тему Ответить на тему  [ 1 сообщение ] 




Для Мосгорсуда, Роскомнадзора и рекламодателей:: mosgorsud-torrent[собачка]yandex.ru