Торрент файл
скачать торрент магнет ссылка Добавлен: 14 янв 2012, 22:03
Размер: 1.45 ГБ
Сидеров: 23
Личеров: 6
Автор

СообщениеДобавлено: 14 янв 2012, 22:03 

Не в сети
Супермодератор
Аватара пользователя
Дата регистрации:
11 апр 2010, 18:10
Спасибо: 5960 / 7
Сообщения: 56765
Знахарь /Znachor



Перевод: Профессиональный (полное дублирование),субтитры: отсутствуют
Формат: DVDRip-AVC, MKV, H.264, AC3
Страна: Польша
Жанр: драма, мелодрама
Продолжительность: 01:30:00
Режиссер: Ежи Гоффман / Jerzy Hoffman
Год выпуска: 1982

В ролях: Ежи Биньчицкий, Анна Дымна, Томаш Стокингер, Бернард Ладыш, Артур Барцишь, Анджей Копичиньский, Петр Грабовский, Божена Дыкель, Мария Хомерска, Игорь Смяловский

Описание:С гениальным хирургом Рафалом Вильчуром происходит трагедия, изменившая всю его жизнь. Уходят жена и дочь, в тот же день он оказывается на улице без денег и документов. Ему приходится пережить несколько лет скитаний и горя.

И все-таки судьба поворачивается к нему лицом. Найдя приют в семье мельника, он спасает его больного сына и становится членом семьи. Молва о «знахаре» расходится по всей округе… А вскоре он встречает и красивую девушку, похожую на жену…


____

Видео: 752 x 448 (1:67:9), 25,000 кадр/сек, AVC (х264), High@L3.0, ~ 2888 Kbps,0.343 bit/pixel
Аудио: 48 kHz, AC3 Dolby Digital, 3/2 (L,C,R,l,r) + LFE ch, ~384 kbps


Автор РИПа:ddimmon22
Общее
Уникальный идентификатор: 215838098999221746885528972434203809471 (0xA260E7E285F9462EBD444AF694A516BF)
Полное имя: I:\oktzbr rupu\znaxar_[tfile.ru].mkv
Формат: Matroska
Версия формата: Version 2
Размер файла: 1,45 Гбайт
Продолжительность: 1 ч. 3 м.
Общий поток: 3274 Кбит/сек
Дата кодирования: UTC 2011-10-16 07:21:18
Программа кодирования: mkvmerge v4.9.1 ('Ich will') сборка от Aug 10 2011 09:31:20
Библиотека кодирования: libebml v1.2.1 + libmatroska v1.2.0

Видео
Идентификатор: 1
Формат: AVC
Формат/Информация: Advanced Video Codec
Профиль формата: High@L3.0
Параметр CABAC формата: Да
Параметр ReFrames формата: 5 кадров
Идентификатор кодека: V_MPEG4/ISO/AVC
Продолжительность: 1 ч. 3 м.
Битрейт: 2888 Кбит/сек
Ширина: 752 пикс.
Высота: 448 пикс.
Соотношение сторон: 1,679
Частота кадров: 25,000 кадр/сек
Цветовое пространство: YUV
Подвыборка цветности: 4:2:0
Битовая глубина: 8 бит
Тип развёртки: Прогрессивная
Бит/(Пиксели*Кадры): 0.343
Размер потока: 1,25 Гбайт (86%)
Библиотека кодирования: x264 core 116 r2074 2641b9e
Настройки программы: cabac=1 / ref=5 / deblock=1:-1:-1 / analyse=0x3:0x113 / me=umh / subme=8 / psy=1 / psy_rd=1.00:0.10 / mixed_ref=1 / me_range=16 / chroma_me=1 / trellis=1 / 8x8dct=1 / cqm=0 / deadzone=21,11 / fast_pskip=1 / chroma_qp_offset=-3 / threads=12 / sliced_threads=0 / nr=0 / decimate=1 / interlaced=0 / bluray_compat=0 / constrained_intra=0 / bframes=3 / b_pyramid=2 / b_adapt=2 / b_bias=0 / direct=3 / weightb=1 / open_gop=0 / weightp=2 / keyint=250 / keyint_min=25 / scenecut=40 / intra_refresh=0 / rc_lookahead=50 / rc=2pass / mbtree=1 / bitrate=2888 / ratetol=1.0 / qcomp=0.60 / qpmin=0 / qpmax=69 / qpstep=4 / cplxblur=20.0 / qblur=0.5 / ip_ratio=1.40 / aq=1:1.00

Аудио
Идентификатор: 2
Формат: AC-3
Формат/Информация: Audio Coding 3
Расширение режима: CM (complete main)
Идентификатор кодека: A_AC3
Продолжительность: 1 ч. 3 м.
Вид битрейта: Постоянный
Битрейт: 384 Кбит/сек
Каналы: 6 каналов
Расположение каналов: Front: L C R, Side: L R, LFE
Частота: 48,0 КГц
Битовая глубина: 16 бит
Метод сжатия: С потерями
Размер потока: 175 Мбайт (12%)














Поделиться:




реклама партнёра


Вернуться к началу
 Профиль Отправить личное сообщение  
 
   Похожие торренты   Автор   Торрент   Размер 
В этой теме нет новых непрочитанных сообщений. Знахарь / Medicine Man [драма, мелодрама, приключения, 1992] WEB-DL 720p, Dvo

salma3

28 | 5

3.29 ГБ

В этой теме нет новых непрочитанных сообщений. Руки вверх / Rece do góry (Ежи Сколимовски / Jerzy Skolimowski) [1981г., Польша, драма, DVDRip] Sub

Alfredovich

24 | 4

888.33 МБ

В этой теме нет новых непрочитанных сообщений. Эта связь / Yeh Nazdeekiyan [драма, мелодрама, 1982] DVDRip, Avo

salma3

0 | 28

1.61 ГБ

В этой теме нет новых непрочитанных сообщений. Лживая Луна / Liar's Moon [драма, мелодрама, 1982] DVDRip, Avo

salma3

25 | 9

1.44 ГБ

В этой теме нет новых непрочитанных сообщений. Лучшие друзья / Best Friends [драма, мелодрама, комедия, 1982] DVDRip-AVC, Mvo

salma3

3 | 4

1.46 ГБ

В этой теме нет новых непрочитанных сообщений. Год, опасный для жизни / The Year of Living Dangerously [драма, мелодрама, военный, 1982] DVDRip, Dub

salma3

30 | 29

1.36 ГБ

В этой теме нет новых непрочитанных сообщений. Чудесная женщина на горбу / Bezva zenska na krku (Томаш Хоффман / Tomas Hoffman) [2016г., Чехия, романтическая комедия, DVDRip] VO

Alfredovich

13 | 5

1.45 ГБ


Начать новую тему Ответить на тему  [ 1 сообщение ] 




Для Мосгорсуда, Роскомнадзора и рекламодателей:: mosgorsud-torrent[собачка]yandex.ru