Торрент файл
скачать торрент магнет ссылка Добавлен: 14 янв 2012, 22:03
Размер: 1.45 ГБ
Сидеров: 15
Личеров: 4
Автор

СообщениеДобавлено: 14 янв 2012, 22:03 

Не в сети
Супермодератор
Аватара пользователя
Дата регистрации:
11 апр 2010, 18:10
Спасибо: 5960 / 7
Сообщения: 56765
Дни жатвы /Days of Heaven



Перевод: Профессиональный (многоголосый, закадровый).субтитры: отсутствуют
Формат: HDRip-AVC, MKV, H.264, AC3
Страна: США
Жанр: драма, мелодрама
Продолжительность: 01:34:00
Режиссер: Терренс Малик / Terrence Malick
Год выпуска: 1978

В ролях: Ричард Гир, Брук Эдамс, Сэм Шепард, Линда Мэнз, Роберт Дж. Уилки, Джекки Шултис, Стюарт Марголин, Тимоти Скотт, Джин Белл, Даг Кершоу

Описание:Тысячи искателей лучшей доли прибывают в начале столетия на плодородные земли Техаса, где уродился невиданный урожай. Среди переселенцев и двое любовников, выдающих себя за брата и сестру. А когда фермер влюбляется в эту красивую женщину, то любовники решают затеять с ним рискованную игру…

________

Видео: 1024 x 576 (1:77:7),23,976 кадр/сек, AVC (х264), High@L3.1, ~2020 Kbps, 0.143 bit/pixel
Аудио: 48 kHz, AC3 Dolby Digital, 2/0 (L,R)ch, ~192 kbps


Автор РИПа:ddimmon22
Общее
Уникальный идентификатор: 246905858211622114246879024908378952815 (0xB9C056AD02D49422B15C8DA417FDD46F)
Полное имя: I:\oktzbr rupu\day_of_heaven_[tfile.ru].mkv
Формат: Matroska
Версия формата: Version 2
Размер файла: 1,45 Гбайт
Продолжительность: 1 ч. 34 м.
Общий поток: 2213 Кбит/сек
Дата кодирования: UTC 2011-10-17 11:09:41
Программа кодирования: mkvmerge v4.9.1 ('Ich will') сборка от Aug 10 2011 09:31:20
Библиотека кодирования: libebml v1.2.1 + libmatroska v1.2.0

Видео
Идентификатор: 1
Формат: AVC
Формат/Информация: Advanced Video Codec
Профиль формата: High@L3.1
Параметр CABAC формата: Да
Параметр ReFrames формата: 5 кадров
Идентификатор кодека: V_MPEG4/ISO/AVC
Продолжительность: 1 ч. 34 м.
Битрейт: 2020 Кбит/сек
Ширина: 1024 пикс.
Высота: 576 пикс.
Соотношение сторон: 16:9
Частота кадров: 23,976 кадр/сек
Цветовое пространство: YUV
Подвыборка цветности: 4:2:0
Битовая глубина: 8 бит
Тип развёртки: Прогрессивная
Бит/(Пиксели*Кадры): 0.143
Размер потока: 1,30 Гбайт (89%)
Библиотека кодирования: x264 core 116 r2074 2641b9e
Настройки программы: cabac=1 / ref=5 / deblock=1:-1:-1 / analyse=0x3:0x113 / me=umh / subme=8 / psy=1 / psy_rd=1.00:0.10 / mixed_ref=1 / me_range=16 / chroma_me=1 / trellis=1 / 8x8dct=1 / cqm=0 / deadzone=21,11 / fast_pskip=1 / chroma_qp_offset=-3 / threads=12 / sliced_threads=0 / nr=0 / decimate=1 / interlaced=0 / bluray_compat=0 / constrained_intra=0 / bframes=3 / b_pyramid=2 / b_adapt=2 / b_bias=0 / direct=3 / weightb=1 / open_gop=0 / weightp=2 / keyint=250 / keyint_min=23 / scenecut=40 / intra_refresh=0 / rc_lookahead=50 / rc=2pass / mbtree=1 / bitrate=2020 / ratetol=1.0 / qcomp=0.60 / qpmin=0 / qpmax=69 / qpstep=4 / cplxblur=20.0 / qblur=0.5 / ip_ratio=1.40 / aq=1:1.00

Аудио
Идентификатор: 2
Формат: AC-3
Формат/Информация: Audio Coding 3
Расширение режима: CM (complete main)
Идентификатор кодека: A_AC3
Продолжительность: 1 ч. 34 м.
Вид битрейта: Постоянный
Битрейт: 192 Кбит/сек
Каналы: 2 канала
Расположение каналов: Front: L R
Частота: 48,0 КГц
Битовая глубина: 16 бит
Метод сжатия: С потерями
Размер потока: 129 Мбайт (9%)












Поделиться:




реклама партнёра


Вернуться к началу
 Профиль Отправить личное сообщение  
 
   Похожие торренты   Автор   Торрент   Размер 
В этой теме нет новых непрочитанных сообщений. Песня за песней / Song to Song (Терренс Малик / Terrence Malick) [2017г., драма, мелодрама, музыка, HDRip] mvo

Alfredovich

450 | 168

2.05 ГБ

В этой теме нет новых непрочитанных сообщений. Рыцарь кубков / Knight of Cups (Терренс Малик) [2015, драма, мелодрама, HDRip | Parovoz Production] dvo

Nickolas3435

1501 | 57

1.45 ГБ

В этой теме нет новых непрочитанных сообщений. Рыцарь кубков / Knight of Cups (Терренс Малик) [2015, драма, мелодрама, BDRip 720p | Parovoz Production] dvo

Nickolas3435

617 | 13

4.74 ГБ

В этой теме нет новых непрочитанных сообщений. Семь дней в мае / Seven Days in May [триллер, драма, мелодрама, 1964] HDRip, Dvo

salma3

55 | 14

1.45 ГБ

В этой теме нет новых непрочитанных сообщений. Фелисити / Felicity [драма, мелодрама, 1978] HDRip, Avo [режиссёрская версия]

salma3

130 | 33

1.45 ГБ

В этой теме нет новых непрочитанных сообщений. Шесть дней, семь ночей / Six Days Seven Nights [Мелодрама, Комедия, Боевик, Приключения, 1998] HDRip 1080p, Dub+Sub

salma3

0 | 0

4.37 ГБ

В этой теме нет новых непрочитанных сообщений. 90 минут на небесах / 90 Minutes in Heaven [Драма, 2015] HDRip, Mvo [iTunes]

salma3

141 | 11

1.37 ГБ


Начать новую тему Ответить на тему  [ 1 сообщение ] 




Для Мосгорсуда, Роскомнадзора и рекламодателей:: mosgorsud-torrent[собачка]yandex.ru