Торрент файл
скачать торрент магнет ссылка Добавлен: 14 янв 2012, 22:02
Размер: 2.1 ГБ
Сидеров: 54
Личеров: 5
Автор

СообщениеДобавлено: 14 янв 2012, 22:02 

Не в сети
Супермодератор
Аватара пользователя
Дата регистрации:
11 апр 2010, 18:10
Спасибо: 5799 / 7
Сообщения: 56779
Древо жизни / The Tree of Life



Перевод : Авторский(одноголосый закадровый) [Вячеслав Замез].субтитры: отсутствуют
Формат: HDRip-AVC, MKV, H.264, AC3
Страна: Франция, Великобритания
Жанр: драма
Продолжительность: 02:18:00
Режиссер: Терренс Маликл / Terrence Malick
Год выпуска: 2011

В ролях: Брэд Питт, Шон Пенн, Джессика Честейн, Хантер МакКракен, Ларами Эпплер, Тай Шеридан, Фиона Шоу, Джессика Фусельер, Николас Гонда, Уилл Уоллес

Описание:Мы наблюдаем за развитием 11-летнего Джека, одного из трех братьев. Поначалу ребенку все кажется чудесным. Глазами своей души он наблюдает за поступками мамы. Она представляет собой любовь и милосердие, в то время как отец пытается научить сына, что в реальном мире на первое место необходимо всегда ставить себя. Каждый родитель старается переманить Джека на свою сторону, и он должен примириться с их притязаниями. Действительность становится мрачнее, когда главному герою в первый раз приходится столкнуться с болью, страданиями и смертью. Некогда абсолютно ясный мир превращается в лабиринт.

________

Видео: 1088 x 592 (1:83:7),23,976 кадр/сек, AVC (х264), High@L3.1, ~1785 Kbps, 0.116 bit/pixel
Аудио: 48 kHz, AC3 Dolby Digital, 3/2 (L,C,R,l,r) + LFE ch, ~384 kbps


Автор РИПа:ddimmon22
Общее
Уникальный идентификатор: 239551158354709156824678296921459486113 (0xB437DFFA05E3A74E8599EDAC78356DA1)
Полное имя: I:\oktzbr rupu\the_tree_of_life_[tfile.ru].mkv
Формат: Matroska
Версия формата: Version 2
Размер файла: 2,10 Гбайт
Продолжительность: 2 ч. 18 м.
Общий поток: 2170 Кбит/сек
Дата кодирования: UTC 2011-10-17 23:47:36
Программа кодирования: mkvmerge v4.9.1 ('Ich will') сборка от Aug 10 2011 09:31:20
Библиотека кодирования: libebml v1.2.1 + libmatroska v1.2.0

Видео
Идентификатор: 1
Формат: AVC
Формат/Информация: Advanced Video Codec
Профиль формата: High@L3.1
Параметр CABAC формата: Да
Параметр ReFrames формата: 5 кадров
Идентификатор кодека: V_MPEG4/ISO/AVC
Продолжительность: 2 ч. 18 м.
Битрейт: 1785 Кбит/сек
Ширина: 1088 пикс.
Высота: 592 пикс.
Соотношение сторон: 16:9
Частота кадров: 23,976 кадр/сек
Цветовое пространство: YUV
Подвыборка цветности: 4:2:0
Битовая глубина: 8 бит
Тип развёртки: Прогрессивная
Бит/(Пиксели*Кадры): 0.116
Размер потока: 1,69 Гбайт (80%)
Библиотека кодирования: x264 core 116 r2074 2641b9e
Настройки программы: cabac=1 / ref=5 / deblock=1:-1:-1 / analyse=0x3:0x113 / me=umh / subme=8 / psy=1 / psy_rd=1.00:0.10 / mixed_ref=1 / me_range=16 / chroma_me=1 / trellis=1 / 8x8dct=1 / cqm=0 / deadzone=21,11 / fast_pskip=1 / chroma_qp_offset=-3 / threads=12 / sliced_threads=0 / nr=0 / decimate=1 / interlaced=0 / bluray_compat=0 / constrained_intra=0 / bframes=3 / b_pyramid=2 / b_adapt=2 / b_bias=0 / direct=3 / weightb=1 / open_gop=0 / weightp=2 / keyint=250 / keyint_min=23 / scenecut=40 / intra_refresh=0 / rc_lookahead=50 / rc=2pass / mbtree=1 / bitrate=1785 / ratetol=1.0 / qcomp=0.60 / qpmin=0 / qpmax=69 / qpstep=4 / cplxblur=20.0 / qblur=0.5 / ip_ratio=1.40 / aq=1:1.00

Аудио
Идентификатор: 2
Формат: AC-3
Формат/Информация: Audio Coding 3
Расширение режима: CM (complete main)
Идентификатор кодека: A_AC3
Продолжительность: 2 ч. 18 м.
Вид битрейта: Постоянный
Битрейт: 384 Кбит/сек
Каналы: 6 каналов
Расположение каналов: Front: L C R, Side: L R, LFE
Частота: 48,0 КГц
Битовая глубина: 16 бит
Метод сжатия: С потерями
Размер потока: 381 Мбайт (18%)
















Поделиться:




реклама партнёра


Вернуться к началу
 Профиль Отправить личное сообщение  
 
   Похожие торренты   Автор   Торрент   Размер 
В этой теме нет новых непрочитанных сообщений. Рыцарь кубков / Knight of Cups (Терренс Малик) [2015, драма, мелодрама, HDRip | Parovoz Production] dvo

Nickolas3435

1501 | 57

1.45 ГБ

В этой теме нет новых непрочитанных сообщений. Рыцарь кубков / Knight of Cups (Терренс Малик) [2015, драма, мелодрама, BDRip 720p | Parovoz Production] dvo

Nickolas3435

617 | 13

4.74 ГБ

В этой теме нет новых непрочитанных сообщений. Партнеры по жизни / Life Partners (Сузанна Фогель) [мелодрама, комедия, 2014] HDRip, Mvo

Dracon

33 | 4

1.37 ГБ

В этой теме нет новых непрочитанных сообщений. Любовь моей жизни / Love of my Life (Майкл Бадд) [Ужасы, Триллер, 2013] HDRip, dvo

Dracon

4 | 2

1.36 ГБ

В этой теме нет новых непрочитанных сообщений. Книга жизни / The Book of Life (Хорхе Р. Гутьеррес) [Мультфильм, фэнтези, мелодрама, комедия, приключения, семейный, 2014] HDRip, Mvo

Dracon

931 | 4

1.37 ГБ

В этой теме нет новых непрочитанных сообщений. Книга жизни  / The Book of Life (Хорхе Р. Гутьеррес) [Мультфильм, фэнтези, мелодрама, комедия, приключения, семейный, 2014] HDRip, Dub [iTunes]

Dracon

0 | 2

700.38 МБ

В этой теме нет новых непрочитанных сообщений. Книга жизни / The Book of Life (Хорхе Р. Гутьеррес) [Мультфильм, фэнтези, мелодрама, комедия, приключения, семейный, 2014] HDRip, Dub [iTunes]

Dracon

14 | 2

1.37 ГБ


Начать новую тему Ответить на тему  [ 1 сообщение ] 




Для Мосгорсуда, Роскомнадзора и рекламодателей:: mosgorsud-torrent[собачка]yandex.ru