Торрент файл
скачать торрент магнет ссылка Добавлен: 14 янв 2012, 22:01
Размер: 2.1 ГБ
Сидеров: 85
Личеров: 12
Автор

СообщениеДобавлено: 14 янв 2012, 22:01 

Не в сети
Супермодератор
Аватара пользователя
Дата регистрации:
11 апр 2010, 18:10
Спасибо: 5802 / 7
Сообщения: 56779
Ешь, молись, люби / Eat Pray Love


Перевод: Профессиональный (полное дублирование), cубтитры: отсутствуют
Формат: HDRip-AVC, MKV, H.264, AC3
Страна: США
Режиссер: Райан Мерфи
Жанр: драма, мелодрама
Продолжительность: 02:25:39
Год выпуска: 2010

В ролях: Джулия Робертс, Хавьер Бардем, Билли Крудап, Виола Дэвис, Майк О`Мэлли, Эшли Эткинсон, Джеймс Франко, Ричард Дженкинс, Софи Томпсон, Лиза Робертс

Описание: Замужняя женщина Элизабет Гилберт в один прекрасный день понимает, что живёт совершенно не той жизнью, которой хотела. После болезненного развода она отправляется в путешествие по миру, которое поможет ей открыть новые горизонты и познать себя.



Видео: 864 x 464 (1:86:1), 23.976 fps, AVC (х264) High@L4.1, ~ 1987 Kbps, 0.207 bit/pixel
Аудио: 48 kHz, AC3 Dolby Digital, 2/0 (L,R) ch, ~160 kbps


Рип: jeenart

General
Unique ID: 237505036219840008720126832202190004662 (0xB2ADCE5DDEF4486C88E04DFAC3DDA1B6)
Complete name: F:\Мои релизы\Все релизы 10\esh_molis_lubi_[tfile.ru].mkv
Format: Matroska
File size: 2.10 GiB
Duration: 2h 20mn
Overall bit rate: 2 148 Kbps
Encoded date: UTC 2011-10-20 04:36:37
Writing application: mkvmerge v4.6.0 ('Still Crazy After All These Years') сборка от Apr1 2011 21:01:49
Writing library: libebml v1.2.0 + libmatroska v1.1.0

Video
ID: 1
Format: AVC
Format/Info: Advanced Video Codec
Format profile: High@L4.1
Format settings, CABAC: Yes
Format settings, ReFrames: 4 frames
Format settings, GOP: M=4, N=32
Codec ID: V_MPEG4/ISO/AVC
Duration: 2h 20mn
Bit rate: 1 987 Kbps
Width: 864 pixels
Height: 464 pixels
Display aspect ratio: 1.862
Frame rate: 23.976 fps
Color space: YUV
Chroma subsampling: 4:2:0
Bit depth: 8 bits
Scan type: Progressive
Bits/(Pixel*Frame): 0.207
Stream size: 1.90 GiB (91%)
Writing library: x264 core 115 r1937 aa21558
Encoding settings: cabac=1 / ref=3 / deblock=1:-1:-1 / analyse=0x3:0x113 / me=hex / subme=7 / psy=1 / psy_rd=1.00:0.10 / mixed_ref=1 / me_range=16 / chroma_me=1 / trellis=1 / 8x8dct=1 / cqm=0 / deadzone=21,11 / fast_pskip=1 / chroma_qp_offset=-3 / threads=6 / sliced_threads=0 / nr=0 / decimate=1 / interlaced=0 / bluray_compat=0 / constrained_intra=0 / bframes=3 / b_pyramid=2 / b_adapt=1 / b_bias=0 / direct=3 / weightb=1 / open_gop=0 / weightp=2 / keyint=250 / keyint_min=23 / scenecut=40 / intra_refresh=0 / rc_lookahead=40 / rc=2pass / mbtree=1 / bitrate=1987 / ratetol=1.0 / qcomp=0.60 / qpmin=0 / qpmax=69 / qpstep=4 / cplxblur=20.0 / qblur=0.5 / ip_ratio=1.40 / aq=1:1.00

Audio
ID: 2
Format: AC-3
Format/Info: Audio Coding 3
Mode extension: CM (complete main)
Codec ID: A_AC3
Duration: 2h 20mn
Bit rate mode: Constant
Bit rate: 160 Kbps
Channel(s): 2 channels
Channel positions: Front: L R
Sampling rate: 48.0 KHz
Bit depth: 16 bits
Compression mode: Lossy
Stream size: 160 MiB (7%)












Поделиться:




реклама партнёра


Вернуться к началу
 Профиль Отправить личное сообщение  
 
   Похожие торренты   Автор   Торрент   Размер 
В этой теме нет новых непрочитанных сообщений. Любовный прогноз / Сегодняшняя любовь / Love Forecast / Today's Love (Чжин Пё Пак / Jin-pyo Park) [2015г., Южная Корея, комедия, мелодрама, HDRip] mvo

Alfredovich

4 | 3

1.47 ГБ

В этой теме нет новых непрочитанных сообщений. Анатомия любви / Endless Love [драма, мелодрама, 2014] HDRip, Dub [iTunes]

Dracon

1969 | 42

1.37 ГБ

В этой теме нет новых непрочитанных сообщений. Любовь есть любовь / Love is love / Wang fu cheng long (Томми Леунг Ка-Шу / Tommy Ga-shu Leung) [1990г., Китай, мелодрама, комедия, HDRip] VO

Alfredovich

6 | 5

1.46 ГБ

В этой теме нет новых непрочитанных сообщений. Возлюбленные / The One I Love (Чарли МакДауэлл) [2014, Драма, мелодрама, комедия, мистика, HDRip] avo

Nickolas3435

366 | 16

1.47 ГБ

В этой теме нет новых непрочитанных сообщений. Сумасшедший вид любви / Crazy Kind of Love [драма, мелодрама, комедия, 2013] HDRip, avo

Dracon

274 | 11

1.46 ГБ

В этой теме нет новых непрочитанных сообщений. Любовь, сбивающая с ног / Punch-Drunk Love [триллер, драма, мелодрама, комедия, 2002] HDRip, Dvo

salma3

0 | 0

1.45 ГБ

В этой теме нет новых непрочитанных сообщений. Чистая Любовь / Pure Love (Ли Юн Хи / -:-) [2016 г., Южная Корея, драма, мелодрама, романтика, HDRip] DVO

Alfredovich

14 | 4

1.76 ГБ


Начать новую тему Ответить на тему  [ 1 сообщение ] 




Для Мосгорсуда, Роскомнадзора и рекламодателей:: mosgorsud-torrent[собачка]yandex.ru