Торрент файл
скачать торрент магнет ссылка Добавлен: 14 янв 2012, 22:01
Размер: 2.1 ГБ
Сидеров: 8
Личеров: 4
Автор

СообщениеДобавлено: 14 янв 2012, 22:01 

Не в сети
Супермодератор
Аватара пользователя
Дата регистрации:
11 апр 2010, 18:10
Спасибо: 5798 / 7
Сообщения: 56779
Два сердца - одна корона / Trenck - Zwei Herzen gegen die Krone


Перевод: Профессиональный (многоголосый, закадровый), cубтитры: отсутствуют
Формат: DVDRip-AVC, MKV, H.264, AC3
Страна: Германия
Режиссер: Гернот Ролль
Жанр: драма, мелодрама
Продолжительность: 03:04:33
Год выпуска: 2002

В ролях: Бен Беккер, Александра-Мария Лара, Аугуст Зирнер, Ханнес Янике, Рудигер Клинк, Хенриетта Рихтер-Рол, Петер Фитц, Маттиас Хабих, Хорст Краузе, Торбен Либрехт

Описание: Он был одним из самых выдающихся людей своего времени. Барон Фридрих фон дер Тренк — солдат, авантюрист, герой, любовник. Неутомимый охотник за женщинами, отчаянный дуэлянт и отважный воин, Тренк становится близким другом короля Пруссии Фридриха Великого. Находясь при королевском дворе в Потсдаме, Тренк завоевывает сердце любимой сестры Фридриха, принцессы Амели. И хотя Тренк и Амели держат свои встречи в строжайшей тайне, им не скрыться от вездесущих шпионов. Граф фон Яшински, начальник Тренка и его неудачливый соперник, отвергнутый принцессой Амели, устраивает искусную политическую интригу и возлюбленный сестры короля попадает в темницу. Амели клянется спасти Тренка, даже если ради этого ей придется бросить вызов своему царственному брату…



Видео: 992 x 560 (1:78:1), 25.000 fps, AVC (х264) High@L4.1, ~ 1311 Kbps, 0.094 bit/pixel
Аудио: 48 kHz, AC3 Dolby Digital, 3/2 (L,C,R,l,r) + LFE ch, ~320 kbps avg


Рип: jeenart

General
Unique ID: 199139889315500707223982461454634542993 (0x95D0F2959DDA018C82A5C8D7A8FD6791)
Complete name: F:\Мои релизы\Все релизы 10\dva_serdca_odna_korona_[tfile.ru].mkv
Format: Matroska
File size: 2.10 GiB
Duration: 3h 4mn
Overall bit rate: 1 633 Kbps
Encoded date: UTC 2011-10-20 12:53:42
Writing application: mkvmerge v4.6.0 ('Still Crazy After All These Years') сборка от Apr1 2011 21:01:49
Writing library: libebml v1.2.0 + libmatroska v1.1.0

Video
ID: 1
Format: AVC
Format/Info: Advanced Video Codec
Format profile: High@L4.1
Format settings, CABAC: Yes
Format settings, ReFrames: 4 frames
Codec ID: V_MPEG4/ISO/AVC
Duration: 3h 4mn
Bit rate: 1 311 Kbps
Width: 992 pixels
Height: 560 pixels
Display aspect ratio: 16:9
Frame rate: 25.000 fps
Color space: YUV
Chroma subsampling: 4:2:0
Bit depth: 8 bits
Scan type: Progressive
Bits/(Pixel*Frame): 0.094
Stream size: 1.65 GiB (78%)
Writing library: x264 core 115 r1937 aa21558
Encoding settings: cabac=1 / ref=3 / deblock=1:-1:-1 / analyse=0x3:0x113 / me=hex / subme=7 / psy=1 / psy_rd=1.00:0.10 / mixed_ref=1 / me_range=16 / chroma_me=1 / trellis=1 / 8x8dct=1 / cqm=0 / deadzone=21,11 / fast_pskip=1 / chroma_qp_offset=-3 / threads=6 / sliced_threads=0 / nr=0 / decimate=1 / interlaced=0 / bluray_compat=0 / constrained_intra=0 / bframes=3 / b_pyramid=2 / b_adapt=1 / b_bias=0 / direct=3 / weightb=1 / open_gop=0 / weightp=2 / keyint=250 / keyint_min=25 / scenecut=40 / intra_refresh=0 / rc_lookahead=40 / rc=2pass / mbtree=1 / bitrate=1311 / ratetol=1.0 / qcomp=0.60 / qpmin=0 / qpmax=69 / qpstep=4 / cplxblur=20.0 / qblur=0.5 / ip_ratio=1.40 / aq=1:1.00

Audio
ID: 2
Format: AC-3
Format/Info: Audio Coding 3
Mode extension: CM (complete main)
Codec ID: A_AC3
Duration: 3h 4mn
Bit rate mode: Constant
Bit rate: 320 Kbps
Channel(s): 6 channels
Channel positions: Front: L C R, Side: L R, LFE
Sampling rate: 48.0 KHz
Bit depth: 16 bits
Compression mode: Lossy
Stream size: 422 MiB (20%)













Поделиться:




реклама партнёра


Вернуться к началу
 Профиль Отправить личное сообщение  
 
   Похожие торренты   Автор   Торрент   Размер 
В этой теме нет новых непрочитанных сообщений. Четверо похорон и одна свадьба / Plots with a View [Мелодрама, комедия, криминал, 2002] DVDRip, Dub

salma3

28 | 4

1.45 ГБ

В этой теме нет новых непрочитанных сообщений. Еще одна пятница / Friday After Next [драма, комедия, 2002] WEB-DLRip, Mvo

salma3

46 | 3

1.45 ГБ

В этой теме нет новых непрочитанных сообщений. Одна встреча / Une rencontre [драма, мелодрама, 2014] DVDRip, Dub [лицензия]

salma3

507 | 9

747.59 МБ

В этой теме нет новых непрочитанных сообщений. Одна встреча / Une rencontre [драма, мелодрама, 2014] DVDRip-AVC, Dub [Лицензия]

salma3

403 | 4

1.46 ГБ

В этой теме нет новых непрочитанных сообщений. Одна встреча / Une rencontre [драма, мелодрама, 2014] DVDRip, Dub [лицензия]

salma3

329 | 6

1.46 ГБ

В этой теме нет новых непрочитанных сообщений. Еще одна пятница / Friday After Next [драма, комедия, 2002] WEBRip 1080p, Mvo

salma3

68 | 8

3.68 ГБ

В этой теме нет новых непрочитанных сообщений. Одна встреча / Une rencontre [драма, мелодрама, 2014] HDRip, Dub [лицензия]

Dracon

8 | 2

1.35 ГБ


Начать новую тему Ответить на тему  [ 1 сообщение ] 




Для Мосгорсуда, Роскомнадзора и рекламодателей:: mosgorsud-torrent[собачка]yandex.ru