Торрент файл
скачать торрент магнет ссылка Добавлен: 14 янв 2012, 21:55
Размер: 1.45 ГБ
Сидеров: 33
Личеров: 4
Автор

СообщениеДобавлено: 14 янв 2012, 21:55 

Не в сети
Супермодератор
Аватара пользователя
Дата регистрации:
11 апр 2010, 18:10
Спасибо: 5963 / 7
Сообщения: 56762
Страшно красив / Вeastly

«Кто он на самом деле...»

Перевод: Профессиональный (полное дублирование) Субтитры: Отсутствуют
Формат: HDRip-AVC, MKV, H.264, AC3
Страна: США
Режиссер: Даниел Барнз
Жанр: Фэнтези, драма, мелодрама
Продолжительность: 01:26:09
Год выпуска: 2011

В ролях: Алекс Петтифер, Джастин Брэдли, Мэри-Кейт Олсен, Дакота Джонсон, Эрик Кнудсен, Ванесса Энн Хадженс, Карл Грабошас, Питер Краузе, Лиза Гэй Хэмилтон, Джонатан Дубски


Описание: Современный Манхэттен — мир гламура и роскоши. Кайл — король этого мира. Он красив и богат. Но когда мир вокруг него изменится, у него останется единственный шанс, чтобы вернуться назад…


Видео: 1056x448 (2,35:1),23,976 кадр/сек,AVC (x264),High@L4.1,~1573Kbps,0.139 bit/pixel
Аудио 1: Русский:48 kHz,AC3 6 каналов,(L,C,R,l,r) + LFE,~448kbps (полное дублирование)
Аудио 2: Английский:48 kHz,AC3 6 каналов,(L,C,R,l,r) + LFE,~384kbps(оригинал)




Общее
Уникальный идентификатор: 191436476895676755153488362603140941509 (0x900553074CC76D9D8C0A4515127106C5)
Полное имя: D:\Интернет\Новая папка\strashno_krasiv_[tfile.ru].mkv
Формат: Matroska
Версия формата: Version 2
Размер файла: 1,45 Гбайт
Продолжительность: 1 ч. 26 м.
Общий поток: 2405 Кбит/сек
Дата кодирования: UTC 2011-09-22 04:34:12
Программа кодирования: mkvmerge v4.0.0 ('The Stars were mine') сборка от Jun6 2010 16:18:42
Библиотека кодирования: libebml v1.0.0 + libmatroska v1.0.0

Видео
Идентификатор: 1
Формат: AVC
Формат/Информация: Advanced Video Codec
Профиль формата: High@L4.1
Параметр CABAC формата: Да
Параметр ReFrames формата: 9 кадров
Идентификатор кодека: V_MPEG4/ISO/AVC
Продолжительность: 1 ч. 26 м.
Битрейт: 1573 Кбит/сек
Ширина: 1056 пикс.
Высота: 448 пикс.
Соотношение сторон: 2,35:1
Частота кадров: 23,976 кадр/сек
Цветовое пространство: YUV
Подвыборка цветности: 4:2:0
Битовая глубина: 8 бит
Тип развёртки: Прогрессивная
Бит/(Пиксели*Кадры): 0.139
Размер потока: 940 Мбайт (63%)
Библиотека кодирования: x264 core 116 r2074 2641b9e
Настройки программы: cabac=1 / ref=9 / deblock=1:-2:-1 / analyse=0x3:0x133 / me=umh / subme=9 / psy=1 / psy_rd=1.00:0.00 / mixed_ref=1 / me_range=32 / chroma_me=1 / trellis=2 / 8x8dct=1 / cqm=0 / deadzone=21,11 / fast_pskip=1 / chroma_qp_offset=-2 / threads=12 / sliced_threads=0 / nr=0 / decimate=1 / interlaced=0 / bluray_compat=0 / constrained_intra=0 / bframes=8 / b_pyramid=2 / b_adapt=2 / b_bias=0 / direct=3 / weightb=1 / open_gop=0 / weightp=2 / keyint=240 / keyint_min=23 / scenecut=40 / intra_refresh=0 / rc_lookahead=50 / rc=2pass / mbtree=1 / bitrate=1573 / ratetol=1.0 / qcomp=0.60 / qpmin=0 / qpmax=69 / qpstep=4 / cplxblur=20.0 / qblur=0.5 / ip_ratio=1.40 / aq=1:1.00
Язык: English

Аудио #1
Идентификатор: 2
Формат: AC-3
Формат/Информация: Audio Coding 3
Расширение режима: CM (complete main)
Идентификатор кодека: A_AC3
Продолжительность: 1 ч. 26 м.
Вид битрейта: Постоянный
Битрейт: 448 Кбит/сек
Каналы: 6 каналов
Расположение каналов: Front: L C R, Side: L R, LFE
Частота: 48,0 КГц
Битовая глубина: 16 бит
Метод сжатия: С потерями
Размер потока: 276 Мбайт (19%)
Заголовок: mvo
Язык: Russian

Аудио #2
Идентификатор: 3
Формат: AC-3
Формат/Информация: Audio Coding 3
Расширение режима: CM (complete main)
Идентификатор кодека: A_AC3
Продолжительность: 1 ч. 26 м.
Вид битрейта: Постоянный
Битрейт: 384 Кбит/сек
Каналы: 6 каналов
Расположение каналов: Front: L C R, Side: L R, LFE
Частота: 48,0 КГц
Битовая глубина: 16 бит
Метод сжатия: С потерями
Размер потока: 237 Мбайт (16%)










Поделиться:




реклама партнёра


Вернуться к началу
 Профиль Отправить личное сообщение  
 
   Похожие торренты   Автор   Торрент   Размер 
В этой теме нет новых непрочитанных сообщений. Торт / Cake (Даниел Барнз) [Драма, 2014] HDRip, avo

Dracon

5 | 4

1.37 ГБ

В этой теме нет новых непрочитанных сообщений. Торт / Cake (Даниел Барнз) [Драма, 2014] BDRip [ColdFilm]

Dracon

2 | 2

1.45 ГБ

В этой теме нет новых непрочитанных сообщений. Торт / Cake (Даниел Барнз) [Драма, 2014] BDRip 1080p [ColdFilm]

Dracon

8 | 5

7.78 ГБ

В этой теме нет новых непрочитанных сообщений. Торт / Cake (Даниел Барнз) [Драма, 2014] BDRip 720p [ColdFilm]

Dracon

16 | 5

4.5 ГБ

В этой теме нет новых непрочитанных сообщений. Фанни / Fanny (Даниель Отой / Daniel Auteuil) [2013г., Франция, драма, HDRip] Sub

Alfredovich

19 | 8

1.7 ГБ

В этой теме нет новых непрочитанных сообщений. Мариус / Marius (Даниель Отой / Daniel Auteuil) [2013г., Франция, драма, HDRip] Sub

Alfredovich

37 | 14

1.57 ГБ

В этой теме нет новых непрочитанных сообщений. Секрет счастья / El misterio de la felicidad (Даниэль Бурман / Daniel Burman) [2014г., Аргентина, драма, мелодрама, комедия, WEB-DL 720p] MVO

Alfredovich

52 | 6

3.17 ГБ


Начать новую тему Ответить на тему  [ 1 сообщение ] 




Для Мосгорсуда, Роскомнадзора и рекламодателей:: mosgorsud-torrent[собачка]yandex.ru