Торрент файл
скачать торрент магнет ссылка Добавлен: 14 янв 2012, 21:52
Размер: 703.5 МБ
Сидеров: 20
Личеров: 5
Автор

СообщениеДобавлено: 14 янв 2012, 21:52 

Не в сети
Супермодератор
Аватара пользователя
Дата регистрации:
11 апр 2010, 18:10
Спасибо: 5801 / 7
Сообщения: 56779
[b]У каждого свое кино / Chacun son cinema ou Ce petit coup au coeur quand la lumiere s'eteint et que le film commence[/b]

Перевод: Профессиональный (многоголосый, закадровый), cубтитры: отсутствуют
Формат: DVDRip, AVI, XviD, MP3
Страна: Франция

Режиссеры: Ларс фон Триер, Роман Полански, Итэн Коэн, Джоэл Коэн, Гас Ван Сент

Жанр: драма, комедия
Продолжительность: 01:50:22
Год выпуска: 2007

В ролях: Ёла Санько, Изабель Аджани, Анук Эме, Фред Астер, Джош Бролин, Юссеф Шахин, Чарльз Спенсер Чаплин, Антуан Шапе, Мори Чайкин, Каспер Кристенсен, Жан Кокто, Уиллем Дефо

Описание: В него вошли 34 киноновеллы всемирно известных режиссеров из 25 стран и 5 континентов. Каждый попытался создать свое неповторимое кино. Все эти мини-фильмы, продолжительностью 3—4 минуты, в той или иной степени связаны общей темой: кино в современном мире

____[/field]



Видео: 672x360 (1.87:1), 25 fps, XviD build 46 ~813 kbps avg, 0.13 bit/pixel
Аудио: 48 kHz, MPEG Layer 3, 2 ch, ~64.00 kbps avg

Раймон Депардон — эпизод «Кино под открытым небом» («Cinéma d’Eté»)
Такэси Китано — эпизод «Один прекрасный день» («One Fine Day»)
Теодорос Ангелопулос — эпизод «Три минуты» («Trois Minutes»)
Андрей Кончаловский — эпизод «В темноте» («Dans le Noir»)
Нанни Моретти — эпизод «Дневник киномана» («Diaro di uno Spettatore»)
Хоу Сяосянь — эпизод «Дом Электрической Принцессы» («The Electric Princess House»)
Жан-Пьер Дарденн, Люк Дарденн — эпизод «Во мраке» («Dans l’Obscurité»)
Алехандро Гонсалес Иньярриту — эпизод «Анна» («Anna»)
Итан Коэн, Джоэл Коэн — эпизод «Мировое кино» («World Cinema»)
Чжан Имоу — эпизод «Вечер в кино» («En Regardant le Film»)
Амос Гитай — эпизод «Злой дух Хайфы» («Le Dibbouk de Haifa»)
Джейн Кэмпион — эпизод «Божья коровка» («The Lady Bug»)
Атом Эгоян — эпизод «Арто Двойной счет» («Artaud Double Bill»)
Аки Каурисмяки — эпизод «Литейный цех» («La Fonderie»)
Оливье Ассайяс — эпизод «Рецидив» («Recrudescence»)
Юсеф Шахин — эпизод «47 лет спустя» («47 Ans Après»)
Цай Минлян — эпизод «Это сон» («It’s a Dream»)
Ларс фон Триер — эпизод «Профессии» («Occupations»)
Рауль Руис — эпизод «Дар» («Le Don»)
Клод Лелуш — эпизод «Кино за углом» (segment «Cinéma de Boulevard»)
Гас Ван Сент — эпизод «Первый поцелуй» («First Kiss»)
Роман Полански — эпизод «Эротический кинотеатр» («Cinéma Erotique»)
Майкл Чимино — эпизод «Перевод не требуется» («No Translation Needed»)
Дэвид Кроненберг — эпизод «Самоубийство последнего в мире еврея в последнем кинотеатре в мире» («At the Suicide of the Last Jew in the World in the Last Cinema in the World»)
Вонг Карвай — эпизод «Я проехал 9000 км, чтобы отдать его вам» («I Travelled 9000 km To Give It To You»)
Аббас Киаростами — эпизод «Где же мой Ромео?» («Where is my Romeo?»)
Билле Аугуст — эпизод «Последнее свидание» («The Last Dating Show»)
Элия Сулейман — эпизод «Неловкость» («Irtebak»)
Мануэль де Оливейра — эпизод «Единственная встреча» («Rencontre Unique»)
Вальтер Саллес — эпизод «В 8944 км от Канн» («A 8 944 km de Cannes»)
Вим Вендерс — эпизод «Война во время мира» («War in Peace»)
Чэнь Кайгэ — эпизод «Деревня Чжансю» («Zhanxiou Village»)
Кен Лоуч — эпизод «Хэппи-энд» («Happy Ending»)
Дэвид Линч — эпизод «Абсурд» («Absurda»)
General
Complete name: E:\u_kazhdogo_svoe_kin.avi
Format: AVI
Format/Info: Audio Video Interleave
File size: 704 MiB
Duration: 1h 50mn
Overall bit rate: 891 Kbps
Writing application: Lavf52.17.0

Video
ID: 0
Format: MPEG-4 Visual
Format profile: Simple@L3
Format settings, BVOP: No
Format settings, QPel: No
Format settings, GMC: No warppoints
Format settings, Matrix: Default (H.263)
Codec ID: XVID
Codec ID/Hint: XviD
Duration: 1h 50mn
Bit rate: 814 Kbps
Width: 672 pixels
Height: 360 pixels
Display aspect ratio: 1.867
Frame rate: 25.000 fps
Color space: YUV
Chroma subsampling: 4:2:0
Bit depth: 8 bits
Scan type: Progressive
Compression mode: Lossy
Bits/(Pixel*Frame): 0.135
Stream size: 643 MiB (91%)
Writing library: XviD 1.1.2 (UTC 2006-11-01)

Audio
ID: 1
Format: MPEG Audio
Format version: Version 1
Format profile: Layer 3
Mode: Joint stereo
Mode extension: MS Stereo
Codec ID: 55
Codec ID/Hint: MP3
Duration: 1h 50mn
Bit rate mode: Constant
Bit rate: 64.0 Kbps
Channel(s): 2 channels
Sampling rate: 48.0 KHz
Compression mode: Lossy
Stream size: 50.5 MiB (7%)
Alignment: Aligned on interleaves
Interleave, duration: 24 ms (0.60 video frame)

























Поделиться:




реклама партнёра


Вернуться к началу
 Профиль Отправить личное сообщение  
 
   Похожие торренты   Автор   Торрент   Размер 
В этой теме нет новых непрочитанных сообщений. Железная хватка / True Grit (Итэн Коэн, Джоэл Коэн) [2010, Приключения, драма, вестерн, BDRip | Лицензия] Dub

Nickolas3435

151 | 7

2.18 ГБ

В этой теме нет новых непрочитанных сообщений. Да здравствует Цезарь! / Hail, Caesar! (Итан Коэн, Джоэл Коэн / Ethan Coen, Joel Coen) [2016 г., Великобритания, комедия, детектив, WEBRip] Dub

Alfredovich

0 | 0

741.17 МБ

В этой теме нет новых непрочитанных сообщений. Мандерлей / Manderlay (Ларс Фон Триер / Lars von Trier) [2005г., Дания, драма, DVDRip] Dub

Alfredovich

58 | 4

2.04 ГБ

В этой теме нет новых непрочитанных сообщений. 22 мая / 22 mei (Коэн Мортье / Koen Mortier) [2010г., Бельгия, триллер, драма, DVDRip] avo

Alfredovich

2 | 3

1.57 ГБ

В этой теме нет новых непрочитанных сообщений. Крепись! / Get Hard (Этан Коэн) [Комедия, 2015] BDRip 1080p, Mvo [iTunes]

Dracon

59 | 4

8.56 ГБ

В этой теме нет новых непрочитанных сообщений. Крепись! / Get Hard (Этан Коэн) [Комедия, 2015] HDRip [UNRATED | Яроцкий]

Dracon

3135 | 75

1.45 ГБ

В этой теме нет новых непрочитанных сообщений. Крепись! / Get Hard (Этан Коэн) [Комедия, 2015] HDRip, Mvo [UNRATED / iTunes]

Dracon

23 | 1

2.05 ГБ


Начать новую тему Ответить на тему  [ 1 сообщение ] 




Для Мосгорсуда, Роскомнадзора и рекламодателей:: mosgorsud-torrent[собачка]yandex.ru