Торрент файл
скачать торрент магнет ссылка Добавлен: 14 янв 2012, 21:51
Размер: 1.45 ГБ
Сидеров: 1
Личеров: 3
Автор

СообщениеДобавлено: 14 янв 2012, 21:51 

Не в сети
Супермодератор
Аватара пользователя
Дата регистрации:
11 апр 2010, 18:10
Спасибо: 5802 / 7
Сообщения: 56779
О Шмидте / About Schmidt

Перевод: Профессиональный (многоголосый, закадровый), cубтитры: русские, английские
Формат: HDTVRip-AVC, MKV, H.264, AC3
Страна: США
Режиссер: Александр Пэйн
Жанр: драма, комедия
Продолжительность: 02:05:18
Год выпуска: 2002

В ролях: Джек Николсон, Кэти Бейтс, Хоуп Дэвис, Дермот Малруни, Джун Скуиб, Ховард Хессеман, Гарри Гронер

Описание: История Уоррена Шмидта (Джек Николсон), работающего в страховой компании. После ухода на покой, он начинает переосмысливать прожитую жизнь, пытаясь понять, смог ли он достичь всех своих мечтаний в карьере, браке и семейной жизни.

Дочь Уоррена, почти не общается с ним, живет в Денвере и собирается выйти замуж за человека, которого он не одобряет. Что же делать? Шмидт отправляется в поездку через всю страну, чтобы остановить эту свадьбу, а заодно и найти смысл своей собственной жизни.




Видео: 832x432, 23.976 fps, AVC(x264), High@L4.1 ~1210 kbps, 0.14 bit/pixel
Аудио: 48 kHz, AC3 Dolby Digital, 3/2 (L,C,R,l,r) + LFE ch, ~448 kbps

Рип: Undertaker99

"Золотой глобус" за лучшую мужскую роль (драма) (Джек Николсон) и лучший сценарий. 2 номинации на "Оскар".
Бюджет $30 000 000, сборы в мире $105 834 556.
Фильм основан на одноимённом романе Луиса Бегли 1996 года.

Общее
Уникальный идентификатор: 251636364530615315161081038484134661207 (0xBD4F66A4F65B57BC8FD8D918B7BF8C57)
Полное имя: D:\Релизы\Aboutt_Schmidt_[tfile.ru].mkv
Формат: Matroska
Размер файла: 1,45 Гбайт
Продолжительность: 2 ч. 5 м.
Общий поток: 1660 Кбит/сек
Дата кодирования: UTC 2011-11-08 19:26:23
Программа кодирования: mkvmerge v5.0.1 ('Es ist Sommer') built on Oct9 2011 11:55:43
Библиотека кодирования: libebml v1.2.2 + libmatroska v1.3.0

Видео
Идентификатор: 1
Формат: AVC
Формат/Информация: Advanced Video Codec
Профиль формата: High@L4.1
Параметр CABAC формата: Да
Параметр ReFrames формата: 4 кадра
Идентификатор кодека: V_MPEG4/ISO/AVC
Продолжительность: 2 ч. 5 м.
Битрейт: 1210 Кбит/сек
Ширина: 832 пикс.
Высота: 432 пикс.
Соотношение сторон: 1,926
Частота кадров: 23,976 кадр/сек
Цветовое пространство: YUV
Подвыборка цветности: 4:2:0
Битовая глубина: 8 бит
Тип развёртки: Прогрессивная
Бит/(Пиксели*Кадры): 0.140
Размер потока: 1,03 Гбайт (71%)
Библиотека кодирования: x264 core 116 r2074 2641b9e
Настройки программы: cabac=1 / ref=4 / deblock=1:-1:-1 / analyse=0x3:0x113 / me=umh / subme=7 / psy=1 / psy_rd=1.00:0.00 / mixed_ref=1 / me_range=16 / chroma_me=1 / trellis=2 / 8x8dct=1 / cqm=0 / deadzone=21,11 / fast_pskip=1 / chroma_qp_offset=-2 / threads=1 / sliced_threads=0 / nr=0 / decimate=1 / interlaced=0 / bluray_compat=0 / constrained_intra=0 / bframes=3 / b_pyramid=0 / b_adapt=2 / b_bias=0 / direct=3 / weightb=1 / open_gop=0 / weightp=2 / keyint=250 / keyint_min=23 / scenecut=40 / intra_refresh=0 / rc_lookahead=40 / rc=2pass / mbtree=1 / bitrate=1210 / ratetol=1.0 / qcomp=0.60 / qpmin=10 / qpmax=51 / qpstep=4 / cplxblur=20.0 / qblur=0.5 / vbv_maxrate=50000 / vbv_bufsize=50000 / nal_hrd=none / ip_ratio=1.40 / aq=1:1.00
Язык: English

Аудио
Идентификатор: 2
Формат: AC-3
Формат/Информация: Audio Coding 3
Расширение режима: CM (complete main)
Идентификатор кодека: A_AC3
Продолжительность: 2 ч. 5 м.
Вид битрейта: Постоянный
Битрейт: 448 Кбит/сек
Каналы: 6 каналов
Расположение каналов: Front: L C R, Side: L R, LFE
Частота: 48,0 КГц
Битовая глубина: 16 бит
Метод сжатия: С потерями
Размер потока: 402 Мбайт (27%)
Заголовок: MVO
Язык: Russian

Текст #1
Идентификатор: 3
Формат: UTF-8
Идентификатор кодека: S_TEXT/UTF8
Идентификатор кодека/Информация: UTF-8 Plain Text

Текст #2
Идентификатор: 4
Формат: UTF-8
Идентификатор кодека: S_TEXT/UTF8
Идентификатор кодека/Информация: UTF-8 Plain Text








Поделиться:




реклама партнёра


Вернуться к началу
 Профиль Отправить личное сообщение  
 
   Похожие торренты   Автор   Торрент   Размер 
В этой теме нет новых непрочитанных сообщений. Преступление и наказание по-американски / Crime + Punishment in Suburbia (Роб Шмидт / Rob Schmidt) [2000г., триллер, драма, HDTVRip] MVO

Alfredovich

18 | 6

1.45 ГБ

В этой теме нет новых непрочитанных сообщений. Демоны да Винчи / Da Vinci's Demons [03х01-10 из 10] (Майкл Дж. Бассетт, Дэвид С. Гойер, Джэми Пэйн) [2015, Драма, приключения, HDTVRip | LostFilm]

Dracon

112 | 48

6.22 ГБ

В этой теме нет новых непрочитанных сообщений. Демоны да Винчи / Da Vinci's Demons [03х01-04 из 10] (Майкл Дж. Бассетт, Дэвид С. Гойер, Джэми Пэйн) [2015, Драма, приключения, HDTVRip | LostFilm]

Dracon

187 | 134

2.34 ГБ

В этой теме нет новых непрочитанных сообщений. Несгибаемая Кимми Шмидт / Unbreakable Kimmy Schmidt [01х01-08 из 13] (Тристрам Шапиро, Майкл Энглер) [2015, комедия, WEBRip | NewStudio]

Nickolas3435

5 | 2

2.34 ГБ

В этой теме нет новых непрочитанных сообщений. Демоны да Винчи / Da Vinci's Demons (Сезон 3, Серия 1-10 из 10) (Дэвид С. Гойер, Джэми Пэйн) [2015 , Драма, приключения, фэнтези , HDTVRip 720p] [MVO] [AlexFilm , LostFilm , English] + [Subs ENG]

Враг Нароода

0 | 1

15.09 ГБ

В этой теме нет новых непрочитанных сообщений. Демоны Да Винчи / Da Vinci's Demons (сезон 1-2, серия 1-18 из 18) (Майкл Дж. Бассетт, Дэвид С. Гойер, Джэми Пэйн[) [2013-2014, Драма, приключения, HDTVRip-AVC 1080p] [DD5.1] [MVO] [AlexFilm + Subs Rus,ENG ]

Nikolai.Baranov

1 | 2

52.04 ГБ

В этой теме нет новых непрочитанных сообщений. Чужое гнездо [серия 1-60 из 60] (Елена Цыплакова, Денис Карро, Александр Ламакин, Роман Нестеренко, Александр Строев) [Мелодрама, семейная сага, драма, 2015] HDTVRip

Dracon

397 | 361

32.2 ГБ


Начать новую тему Ответить на тему  [ 1 сообщение ] 




Для Мосгорсуда, Роскомнадзора и рекламодателей:: mosgorsud-torrent[собачка]yandex.ru