Торрент файл
скачать торрент магнет ссылка Добавлен: 14 янв 2012, 21:47
Размер: 2.1 ГБ
Сидеров: 5
Личеров: 3
Автор

СообщениеДобавлено: 14 янв 2012, 21:47 

Не в сети
Супермодератор
Аватара пользователя
Дата регистрации:
11 апр 2010, 18:10
Спасибо: 5960 / 7
Сообщения: 56765
Мы - одна команда / We Are Marshall



Перевод: Профессиональный (многоголосый закадровый),субтитры: отсутствуют
Формат: HDRip-AVC, MKV, H.264, AC3
Страна: США
Жанр: драма, спорт
Продолжительность: 02:11:00
Режиссер: МакДжи / McG
Год выпуска: 2006

В ролях: Мэттью МакКонахи, Мэттью Фокс, Энтони Маки, Дэвид Стрэтэйрн, Иэн МакШейн, Кейт Мара, Дженьюэри Джон.

Описание: В роковую ночь 1970 года университетская команда по американскому футболу из небольшого городка Хантингтон, расположенного в Западной Вирджинии, разбилась в авиакатастрофе. Погибли все 75 человек — игроки и тренеры…
Пережить эту страшную трагедию и получить надежду на будущее хантингтонцам удается благодаря дерзости и настойчивости молодого тренера Джека Ленджиела, который формирует новую команду….

________

Видео: 1 248x 520 (2:40:1), 23,976 кадр/сек, AVC (х264), High@L3.1, ~ 1 903 Kbps,0.122 bit/pixel
Аудио: 48 kHz, AC3 Dolby Digital, 3/2 (L,C,R,l,r) + LFE ch, ~384 kbps


Автор РИПа:ANDREY22W22
Общее
Уникальный идентификатор: 184899815712975234178403802443724104156 (0x8B1A68BFFA00C924B65412C3F26421DC)
Полное имя: E:\рипы\we_are_marshall_[tfile.ru].mkv
Формат: Matroska
Версия формата: Version 2
Размер файла: 2,10 Гбайт
Продолжительность: 2 ч. 11 м.
Общий поток: 2288 Кбит/сек
Дата кодирования: UTC 2011-11-13 12:09:32
Программа кодирования: mkvmerge v4.9.1 ('Ich will') зібрано Aug 10 2011 09:31:20
Библиотека кодирования: libebml v1.2.1 + libmatroska v1.2.0

Видео
Идентификатор: 1
Формат: AVC
Формат/Информация: Advanced Video Codec
Профиль формата: High@L3.1
Параметр CABAC формата: Да
Параметр ReFrames формата: 4 кадра
Идентификатор кодека: V_MPEG4/ISO/AVC
Продолжительность: 2 ч. 11 м.
Битрейт: 1903 Кбит/сек
Ширина: 1248 пикс.
Высота: 520 пикс.
Соотношение сторон: 2,40:1
Частота кадров: 23,976 кадр/сек
Цветовое пространство: YUV
Подвыборка цветности: 4:2:0
Битовая глубина: 8 бит
Тип развёртки: Прогрессивная
Бит/(Пиксели*Кадры): 0.122
Размер потока: 1,71 Гбайт (81%)
Библиотека кодирования: x264 core 116 r2074 2641b9e
Настройки программы: cabac=1 / ref=3 / deblock=1:0:0 / analyse=0x3:0x113 / me=hex / subme=7 / psy=1 / psy_rd=1.00:0.00 / mixed_ref=1 / me_range=16 / chroma_me=1 / trellis=1 / 8x8dct=1 / cqm=0 / deadzone=21,11 / fast_pskip=1 / chroma_qp_offset=-2 / threads=12 / sliced_threads=0 / nr=0 / decimate=1 / interlaced=0 / bluray_compat=0 / constrained_intra=0 / bframes=3 / b_pyramid=2 / b_adapt=1 / b_bias=0 / direct=1 / weightb=1 / open_gop=0 / weightp=2 / keyint=250 / keyint_min=23 / scenecut=40 / intra_refresh=0 / rc_lookahead=40 / rc=2pass / mbtree=1 / bitrate=1903 / ratetol=1.0 / qcomp=0.60 / qpmin=0 / qpmax=69 / qpstep=4 / cplxblur=20.0 / qblur=0.5 / ip_ratio=1.40 / aq=1:1.00

Аудио
Идентификатор: 2
Формат: AC-3
Формат/Информация: Audio Coding 3
Расширение режима: CM (complete main)
Идентификатор кодека: A_AC3
Продолжительность: 2 ч. 11 м.
Вид битрейта: Постоянный
Битрейт: 384 Кбит/сек
Каналы: 6 каналов
Расположение каналов: Front: L C R, Side: L R, LFE
Частота: 48,0 КГц
Битовая глубина: 16 бит
Метод сжатия: С потерями
Размер потока: 361 Мбайт (17%)







Поделиться:




реклама партнёра


Вернуться к началу
 Профиль Отправить личное сообщение  
 
   Похожие торренты   Автор   Торрент   Размер 
В этой теме нет новых непрочитанных сообщений. Одна ночь с королем / One Night with the King [драма, биография, история, 2006] BDRip 1080p, Dvo+Sub

salma3

243 | 177

7.78 ГБ

В этой теме нет новых непрочитанных сообщений. Наоми: Такая только одна / Naomi: There is only One (2006) DVDRip

salma3

18 | 0

2.05 ГБ

В этой теме нет новых непрочитанных сообщений. Команда мечты / La Dream Team [комедия, 2016] HDRip, Mvo

salma3

16 | 1

1.46 ГБ

В этой теме нет новых непрочитанных сообщений. Одна миллиардная доля / Parts Per Billion [фантастика, 2014] HDRip, Mvo [Лицензия]

Dracon

634 | 15

1.46 ГБ

В этой теме нет новых непрочитанных сообщений. Лазерная команда / Lazer Team [фантастика, боевик, комедия, 2015] HDRip, Mvo

salma3

247 | 105

1.46 ГБ

В этой теме нет новых непрочитанных сообщений. Лепрекон 2: Одна свадьба и много похорон / Leprechaun 2 [ужасы, фэнтези, комедия, 1994] HDRip-AVC, Mvo

salma3

33 | 7

746.08 МБ

В этой теме нет новых непрочитанных сообщений. Игра по чужим правилам / Glory Road [драма, биография, спорт, 2006] BDRip-AVC, Mvo

salma3

31 | 4

747.84 МБ


Начать новую тему Ответить на тему  [ 1 сообщение ] 




Для Мосгорсуда, Роскомнадзора и рекламодателей:: mosgorsud-torrent[собачка]yandex.ru