Торрент файл
скачать торрент магнет ссылка Добавлен: 14 янв 2012, 21:46
Размер: 1.45 ГБ
Сидеров: 8
Личеров: 5
Автор

СообщениеДобавлено: 14 янв 2012, 21:46 

Не в сети
Супермодератор
Аватара пользователя
Дата регистрации:
11 апр 2010, 18:10
Спасибо: 5801 / 7
Сообщения: 56779
Зажечь мир / Beat the World



Перевод: Любительский (двухголосый), субтитры: отсутствуют
Формат: HDRip-AVC, MKV, H.264, AC3
Страна: Канада
Жанр: драма
Продолжительность: 01:31:00
Режиссер: Роберт Эйдитай / Robert Adetuyi
Год выпуска: 2011

В ролях: Тайрон Браун, Никки Грант, Рэй Джонсон, Чейз Эрмитаж, Кристи Флорес, Шэйн Поллард.

Описание: У Юсона череда личных кризисов, которая может помешать ему и его танцевальному коллективу победить в мировом чемпионате в Детройте. Здесь собрались хип-хоп команды с разных концов США и всего света в надежде воплотить свои мечтания и обрести свой свет славы.

________


Видео: 960x 408 (2:35:1), 23,976 кадр/сек, AVC (х264), High@L3.0, ~ 1 893 Kbps,0.202 bit/pixel
Аудио: 48 kHz, AC3 Dolby Digital, 3/2 (L,C,R,l,r) + LFE ch, ~384 kbps

Автор РИПа:ANDREY22W22
Общее
Уникальный идентификатор: 175854021132599822641542121887231404596 (0x844C40A4C238FEAFA27605197F886A34)
Полное имя: E:\рипы\zazhech_mir_[tfile.ru].mkv
Формат: Matroska
Версия формата: Version 2
Размер файла: 1,45 Гбайт
Продолжительность: 1 ч. 31 м.
Общий поток: 2278 Кбит/сек
Дата кодирования: UTC 2011-11-13 15:30:40
Программа кодирования: mkvmerge v4.9.1 ('Ich will') зібрано Aug 10 2011 09:31:20
Библиотека кодирования: libebml v1.2.1 + libmatroska v1.2.0

Видео
Идентификатор: 1
Формат: AVC
Формат/Информация: Advanced Video Codec
Профиль формата: High@L3.0
Параметр CABAC формата: Да
Параметр ReFrames формата: 4 кадра
Идентификатор кодека: V_MPEG4/ISO/AVC
Продолжительность: 1 ч. 31 м.
Битрейт: 1893 Кбит/сек
Ширина: 960 пикс.
Высота: 408 пикс.
Соотношение сторон: 2,35:1
Частота кадров: 23,976 кадр/сек
Цветовое пространство: YUV
Подвыборка цветности: 4:2:0
Битовая глубина: 8 бит
Тип развёртки: Прогрессивная
Бит/(Пиксели*Кадры): 0.202
Размер потока: 1,18 Гбайт (81%)
Библиотека кодирования: x264 core 116 r2074 2641b9e
Настройки программы: cabac=1 / ref=3 / deblock=1:0:0 / analyse=0x3:0x113 / me=hex / subme=7 / psy=1 / psy_rd=1.00:0.00 / mixed_ref=1 / me_range=16 / chroma_me=1 / trellis=1 / 8x8dct=1 / cqm=0 / deadzone=21,11 / fast_pskip=1 / chroma_qp_offset=-2 / threads=12 / sliced_threads=0 / nr=0 / decimate=1 / interlaced=0 / bluray_compat=0 / constrained_intra=0 / bframes=3 / b_pyramid=2 / b_adapt=1 / b_bias=0 / direct=1 / weightb=1 / open_gop=0 / weightp=2 / keyint=250 / keyint_min=23 / scenecut=40 / intra_refresh=0 / rc_lookahead=40 / rc=2pass / mbtree=1 / bitrate=1893 / ratetol=1.0 / qcomp=0.60 / qpmin=0 / qpmax=69 / qpstep=4 / cplxblur=20.0 / qblur=0.5 / ip_ratio=1.40 / aq=1:1.00

Аудио
Идентификатор: 2
Формат: AC-3
Формат/Информация: Audio Coding 3
Расширение режима: CM (complete main)
Идентификатор кодека: A_AC3
Продолжительность: 1 ч. 31 м.
Вид битрейта: Постоянный
Битрейт: 384 Кбит/сек
Каналы: 6 каналов
Расположение каналов: Front: L C R, Side: L R, LFE
Частота: 48,0 КГц
Битовая глубина: 16 бит
Метод сжатия: С потерями
Размер потока: 251 Мбайт (17%)







Поделиться:




реклама партнёра


Вернуться к началу
 Профиль Отправить личное сообщение  
 
   Похожие торренты   Автор   Торрент   Размер 
В этой теме нет новых непрочитанных сообщений. Камни на шанец / Kamienie na szaniec (Роберт Глиньский / Robert Glinski) [2014г., Польша, военный, драма, экранизация, DVDRip] sub

Alfredovich

59 | 0

697.49 МБ

В этой теме нет новых непрочитанных сообщений. Джесси Стоун: Тайны Парадайза / Jesse Stone: Lost in Paradise (Роберт Хармон / Robert Harmon) [2015г., Канада, драма, криминал, детектив, WEB-DL 720p] MVO

Alfredovich

4036 | 552

2.85 ГБ

В этой теме нет новых непрочитанных сообщений. Кукла Роберт / Robert the Doll (Эндрю Джонс) [Ужасы, 2015] DVDRip, Avo

Dracon

1168 | 233

1.45 ГБ

В этой теме нет новых непрочитанных сообщений. Зажечь в Касбе / Rock the Casbah (Ярив Хоровиц / Yariv Horowitz) [2012г., драма, DVDRip] DVO

Alfredovich

1 | 2

1.5 ГБ

В этой теме нет новых непрочитанных сообщений. Обыкновенный мир / Ordinary World [драма, комедия, музыка, 2016] HDRip, Mvo

salma3

99 | 41

1.37 ГБ

В этой теме нет новых непрочитанных сообщений. Обыкновенный мир / Ordinary World [драма, комедия, музыка, 2016] HDRip, Mvo

salma3

33 | 15

699.69 МБ

В этой теме нет новых непрочитанных сообщений. Самый лучший папа / World's Greatest Dad [драма, комедия, 2009] HDRip, Mvo

salma3

27 | 5

1.45 ГБ


Начать новую тему Ответить на тему  [ 1 сообщение ] 




Для Мосгорсуда, Роскомнадзора и рекламодателей:: mosgorsud-torrent[собачка]yandex.ru