Торрент файл
скачать торрент магнет ссылка Добавлен: 14 янв 2012, 21:42
Размер: 1.45 ГБ
Сидеров: 30
Личеров: 5
Автор

СообщениеДобавлено: 14 янв 2012, 21:42 

Не в сети
Супермодератор
Аватара пользователя
Дата регистрации:
11 апр 2010, 18:10
Спасибо: 5801 / 7
Сообщения: 56779
Девушка по вызову / The Girlfriend Experience



Перевод:Профессиональный (двухголосый), субтитры: отсутствуют
Формат: HDRip-AVC, MKV, H.264, AC3
Страна: США
Жанр: драма,
Продолжительность: 01:16:57
Режиссер: Стивен Содерберг / Steven Soderbergh
Год выпуска: 2009

В ролях: Саша Грэй, Крис Сантос, Филип Эйтан, Питер Зиззо, Рон Стейн, Маршалл Гилман, Майкл Робертс, Джим Кемпнер.

Описание: Героиня фильма — высококлассная девушка по вызову, которая предлагает своим клиентам больше, чем просто секс. Ее услуги стоят дорого, и позволить себе проводить с ней время могут лишь состоятельные бизнесмены. Зато те, кто попробовал, хотят встретиться с ней снова….

________


Видео: 960x 400 (2:40:1), 23,976 кадр/сек, AVC (х264), High@L3.0, ~ 2 319Kbps,0.252 bit/pixel
Аудио: 48 kHz, AC3 Dolby Digital, 3/2 (L,C,R,l,r) + LFE ch, ~384 kbps

Автор РИПа:ANDREY22W22
Общее
Уникальный идентификатор: 200505832008732871313802419229825535157 (0x96D804C23F7E1EB28A6C6FD37A558CB5)
Полное имя: E:\рипы\the_girlfriend_experience_[tfile.ru] .mkv
Формат: Matroska
Версия формата: Version 2
Размер файла: 1,45 Гбайт
Продолжительность: 1 ч. 16 м.
Общий поток: 2704 Кбит/сек
Дата кодирования: UTC 2011-11-27 08:07:09
Программа кодирования: mkvmerge v4.9.1 ('Ich will') зібрано Aug 10 2011 09:31:20
Библиотека кодирования: libebml v1.2.1 + libmatroska v1.2.0

Видео
Идентификатор: 1
Формат: AVC
Формат/Информация: Advanced Video Codec
Профиль формата: High@L3.0
Параметр CABAC формата: Да
Параметр ReFrames формата: 4 кадра
Идентификатор кодека: V_MPEG4/ISO/AVC
Продолжительность: 1 ч. 16 м.
Битрейт: 2319 Кбит/сек
Ширина: 960 пикс.
Высота: 400 пикс.
Соотношение сторон: 2,40:1
Частота кадров: 23,976 кадр/сек
Цветовое пространство: YUV
Подвыборка цветности: 4:2:0
Битовая глубина: 8 бит
Тип развёртки: Прогрессивная
Бит/(Пиксели*Кадры): 0.252
Размер потока: 1,22 Гбайт (84%)
Библиотека кодирования: x264 core 116 r2074 2641b9e
Настройки программы: cabac=1 / ref=3 / deblock=1:0:0 / analyse=0x3:0x113 / me=hex / subme=7 / psy=1 / psy_rd=1.00:0.00 / mixed_ref=1 / me_range=16 / chroma_me=1 / trellis=1 / 8x8dct=1 / cqm=0 / deadzone=21,11 / fast_pskip=1 / chroma_qp_offset=-2 / threads=12 / sliced_threads=0 / nr=0 / decimate=1 / interlaced=0 / bluray_compat=0 / constrained_intra=0 / bframes=3 / b_pyramid=2 / b_adapt=1 / b_bias=0 / direct=1 / weightb=1 / open_gop=0 / weightp=2 / keyint=250 / keyint_min=23 / scenecut=40 / intra_refresh=0 / rc_lookahead=40 / rc=2pass / mbtree=1 / bitrate=2319 / ratetol=1.0 / qcomp=0.60 / qpmin=0 / qpmax=69 / qpstep=4 / cplxblur=20.0 / qblur=0.5 / ip_ratio=1.40 / aq=1:1.00

Аудио
Идентификатор: 2
Формат: AC-3
Формат/Информация: Audio Coding 3
Расширение режима: CM (complete main)
Идентификатор кодека: A_AC3
Продолжительность: 1 ч. 16 м.
Вид битрейта: Постоянный
Битрейт: 384 Кбит/сек
Каналы: 6 каналов
Расположение каналов: Front: L C R, Side: L R, LFE
Частота: 48,0 КГц
Битовая глубина: 16 бит
Метод сжатия: С потерями
Размер потока: 211 Мбайт (14%)







Поделиться:




реклама партнёра


Вернуться к началу
 Профиль Отправить личное сообщение  
 
   Похожие торренты   Автор   Торрент   Размер 
В этой теме нет новых непрочитанных сообщений. Девушка по вызову / The Girlfriend Experience [драма, 2009] BDRip, Dvo

salma3

124 | 10

1.45 ГБ

В этой теме нет новых непрочитанных сообщений. Girlfriend Experience / Девушки по вызову (Porn Pros) (Chloe Amour, Dani Jensen, Holly Michaels, Jessa Rhodes, Natalia Starr...) [2014 г., All sex, Gonzo, DVDRip 404p]

Boxer

0 | 4

1.58 ГБ

В этой теме нет новых непрочитанных сообщений. Девушка по вызову / Call Girl [триллер, драма, 2012] BDRemux 1080p, Dvo [НТВ+]

salma3

17 | 9

35.84 ГБ

В этой теме нет новых непрочитанных сообщений. Girlfriend Experience 2 / Иметь подружку 2 (Porn Pros) (Alexis Adams, Ariana Marie, Dillion Harper, Keisha Grey, Sara Luv...) [2014 г., Gonzo, POV, WEB-DL 404p]

kite

5 | 2

894.96 МБ

В этой теме нет новых непрочитанных сообщений. Girlfriend Experience 2 / Иметь подружку 2 (Porn Pros) (Alexis Adams, Ariana Marie, Dillion Harper, Keisha Grey, Sara Luv...) [2014 г., Gonzo, POV, WEB-DL 400p]

friizze

47 | 21

1.65 ГБ

В этой теме нет новых непрочитанных сообщений. Больница Никербокер / The Knick [02x01-06 из 10] (Стивен Содерберг) [2015, драма, HDTVRip | Amedia]

Dracon

5 | 20

4.39 ГБ

В этой теме нет новых непрочитанных сообщений. Больница Никербокер / The Knick [01x01-10 из 10] (Стивен Содерберг) [2014, драма, HDTVRip | Amedia]

Nickolas3435

484 | 672

7.51 ГБ


Начать новую тему Ответить на тему  [ 1 сообщение ] 




Для Мосгорсуда, Роскомнадзора и рекламодателей:: mosgorsud-torrent[собачка]yandex.ru