Торрент файл
скачать торрент магнет ссылка Добавлен: 14 янв 2012, 21:40
Размер: 2.07 ГБ
Сидеров: 26
Личеров: 3
Автор

СообщениеДобавлено: 14 янв 2012, 21:40 

Не в сети
Супермодератор
Аватара пользователя
Дата регистрации:
11 апр 2010, 18:10
Спасибо: 5801 / 7
Сообщения: 56779
Эта - дурацкая - любовь / Crazy, Stupid, Love


Перевод: Профессиональный (полное дублирование), cубтитры: отсутствуют
Формат: DVDRip-AVC, MKV, H.264, AC3
Страна: США
Режиссер: Гленн Фикарра, Джон Рекуа
Жанр: драма, мелодрама, комедия
Продолжительность: 02:05:10
Год выпуска: 2011

В ролях: Стив Карелл, Райан Гослинг, Джулианна Мур, Эмма Стоун, Аналей Типтон, Йон Бобо, Джои Кинг, Мариса Томей, Бет Литлфорд, Джон Кэрролл Линч, Кевин Бейкон

Описание: У Кола Уивера, пуританских взглядов семьянина в возрасте «чуть-чуть за сорок», не жизнь, а мечта — хорошая работа, прекрасный дом, замечательные дети и брак со школьной возлюбленной. Но когда Кол узнает, что его жена Эмили изменила ему и хочет развода, его «идеальная» жизнь быстро рушится. Хуже того, говоря современным языком, Кол, который уже пару десятилетий не ходил на свидания, являет собой настоящего «лоха».



Видео: 976 x 400 (2:40:1), 25.000 fps, AVC (х264) High@L4.1, ~ 2020 Kbps, 0.207 bit/pixel
Аудио: 48 kHz, AC3 Dolby Digital, 3/2 (L,C,R,l,r) + LFE ch, ~384 kbps avg


Рип: jeenart

General
Unique ID: 235962828426675157509068158010599462131 (0xB184C9A6E61A20D697DD57BB6754D4F3)
Complete name: F:\Мои релизы\Все релизы 10\eta_durackaja_lubov_[tfile.ru].mkv
Format: Matroska
File size: 2.07 GiB
Duration: 2h 5mn
Overall bit rate: 2 369 Kbps
Encoded date: UTC 2011-11-29 22:50:58
Writing application: mkvmerge v4.6.0 ('Still Crazy After All These Years') сборка от Apr1 2011 21:01:49
Writing library: libebml v1.2.0 + libmatroska v1.1.0

Video
ID: 1
Format: AVC
Format/Info: Advanced Video Codec
Format profile: High@L4.1
Format settings, CABAC: Yes
Format settings, ReFrames: 4 frames
Codec ID: V_MPEG4/ISO/AVC
Duration: 2h 5mn
Bit rate: 2 020 Kbps
Width: 976 pixels
Height: 400 pixels
Display aspect ratio: 2.40:1
Frame rate: 25.000 fps
Color space: YUV
Chroma subsampling: 4:2:0
Bit depth: 8 bits
Scan type: Progressive
Bits/(Pixel*Frame): 0.207
Stream size: 1.69 GiB (82%)
Writing library: x264 core 115 r1937 aa21558
Encoding settings: cabac=1 / ref=3 / deblock=1:-1:-1 / analyse=0x3:0x113 / me=hex / subme=7 / psy=1 / psy_rd=1.00:0.10 / mixed_ref=1 / me_range=16 / chroma_me=1 / trellis=1 / 8x8dct=1 / cqm=0 / deadzone=21,11 / fast_pskip=1 / chroma_qp_offset=-3 / threads=6 / sliced_threads=0 / nr=0 / decimate=1 / interlaced=0 / bluray_compat=0 / constrained_intra=0 / bframes=3 / b_pyramid=2 / b_adapt=1 / b_bias=0 / direct=3 / weightb=1 / open_gop=0 / weightp=2 / keyint=250 / keyint_min=25 / scenecut=40 / intra_refresh=0 / rc_lookahead=40 / rc=2pass / mbtree=1 / bitrate=2020 / ratetol=1.0 / qcomp=0.60 / qpmin=0 / qpmax=69 / qpstep=4 / cplxblur=20.0 / qblur=0.5 / ip_ratio=1.40 / aq=1:1.00

Audio
ID: 2
Format: AC-3
Format/Info: Audio Coding 3
Mode extension: CM (complete main)
Codec ID: A_AC3
Duration: 2h 5mn
Bit rate mode: Constant
Bit rate: 384 Kbps
Channel(s): 6 channels
Channel positions: Front: L C R, Side: L R, LFE
Sampling rate: 48.0 KHz
Bit depth: 16 bits
Compression mode: Lossy
Stream size: 344 MiB (16%)













Поделиться:




реклама партнёра


Вернуться к началу
 Профиль Отправить личное сообщение  
 
   Похожие торренты   Автор   Торрент   Размер 
В этой теме нет новых непрочитанных сообщений. Я люблю тебя, Филлип Моррис / I Love You Phillip Morris (Гленн Фикарра, Джон Рекуа) [2008, драма, мелодрама, комедия, BDRip 720] Dub

Nickolas3435

110 | 8

2.81 ГБ

В этой теме нет новых непрочитанных сообщений. Фокус / Focus (Гленн Фикарра, Джон Рекуа) [драма, мелодрама, комедия, криминал, 2015] DVD5, Dub+Sub [Лицензия]

Dracon

169 | 26

4.36 ГБ

В этой теме нет новых непрочитанных сообщений. Фокус / Focus (Гленн Фикарра, Джон Рекуа) [драма, мелодрама, комедия, криминал, 2015] WEB-DLRip, Dub [iTunes]

Dracon

6 | 0

2.05 ГБ

В этой теме нет новых непрочитанных сообщений. Фокус / Focus (Гленн Фикарра, Джон Рекуа) [драма, мелодрама, комедия, криминал, 2015] HDRip, Dub [iTunes]

Dracon

5 | 0

1.37 ГБ

В этой теме нет новых непрочитанных сообщений. Фокус / Focus (Гленн Фикарра, Джон Рекуа) [драма, мелодрама, комедия, криминал, 2015] Blu-Ray 1080p, Dub+Sub [Лицензия]

Dracon

63 | 15

30.75 ГБ

В этой теме нет новых непрочитанных сообщений. Фокус / Focus (Гленн Фикарра, Джон Рекуа) [драма, мелодрама, комедия, криминал, 2015] WEB-DLRip, Dub [iTunes]

Dracon

1699 | 44

1.37 ГБ

В этой теме нет новых непрочитанных сообщений. Фокус / Focus (Гленн Фикарра, Джон Рекуа) [драма, мелодрама, комедия, криминал, 2015] WEB-DLRip 720p, Dub [iTunes]

Dracon

532 | 12

3.54 ГБ


Начать новую тему Ответить на тему  [ 1 сообщение ] 




Для Мосгорсуда, Роскомнадзора и рекламодателей:: mosgorsud-torrent[собачка]yandex.ru