Торрент файл
скачать торрент магнет ссылка Добавлен: 14 янв 2012, 21:38
Размер: 1.45 ГБ
Сидеров: 0
Личеров: 4
Автор

СообщениеДобавлено: 14 янв 2012, 21:38 

Не в сети
Супермодератор
Аватара пользователя
Дата регистрации:
11 апр 2010, 18:10
Спасибо: 5802 / 7
Сообщения: 56779
Кое-что о Генри / Regarding Henry

Перевод: Профессиональный (двухголосый), cубтитры: английские
Формат: HDTVRip-AVC, MKV, H.264, AC3
Страна: США
Режиссер: Майк Николс
Жанр: драма
Продолжительность: 01:42:52
Год выпуска: 1991

В ролях: Харрисон Форд, Аннетт Бенинг, Майкл Хейли, Стенли Свердлоу, Ребекка Миллер, Брюс Олтмен, Элизабет Уилсон, Дональд Моффет, Микки Аллен

Описание: Генри Тернер — преуспевающий, но бессердечный нью-йоркский адвокат, готовый добиваться успеха любой ценой, даже за счет своих жены и дочери.

Но однажды случается несчастье, которое обрывает стремительную карьеру Генри. Он оказывается недееспособным и к тому же полностью теряет все воспоминания о своей прошлой жизни. Необходимо начинать все заново, и Генри постепенно узнает тяжелую и неприятную правду о себе самом…




Видео: 832x464, 25 fps, AVC(x264), High@L4.1 ~1569 kbps, 0.163 bit/pixel
Аудио #1:Русский: 48 kHz, AC3 Dolby Digital, 2/0 (L,R) ch, ~192 kbps [Профессиональный (двухголосый)]
Аудио #2:Русский: 44.100 kHz, MPEG Layer 3, 2 ch, ~128.00 kbps avg [Авторский (Алексей Михалёв)]
Аудио #3:Английский: 44.100 kHz, MPEG Layer 3, 2 ch, ~128.00 kbps avg [Оригинал]

Рип: Undertaker99









Общее
Уникальный идентификатор: 199963550404355218381657061959881984025 (0x966F94362188C63B81760D36A1440819)
Полное имя: D:\Релизы\Regardinng_Henry_[tfile.ru].mkv
Формат: Matroska
Размер файла: 1,45 Гбайт
Продолжительность: 1 ч. 42 м.
Общий поток: 2016 Кбит/сек
Дата кодирования: UTC 2011-12-03 18:03:28
Программа кодирования: mkvmerge v5.0.1 ('Es ist Sommer') built on Oct9 2011 11:55:43
Библиотека кодирования: libebml v1.2.2 + libmatroska v1.3.0

Видео
Идентификатор: 1
Формат: AVC
Формат/Информация: Advanced Video Codec
Профиль формата: High@L4.1
Параметр CABAC формата: Да
Параметр ReFrames формата: 4 кадра
Идентификатор кодека: V_MPEG4/ISO/AVC
Продолжительность: 1 ч. 42 м.
Битрейт: 1569 Кбит/сек
Ширина: 832 пикс.
Высота: 464 пикс.
Соотношение сторон: 16:9
Частота кадров: 25,000 кадр/сек
Цветовое пространство: YUV
Подвыборка цветности: 4:2:0
Битовая глубина: 8 бит
Тип развёртки: Прогрессивная
Бит/(Пиксели*Кадры): 0.163
Размер потока: 1,10 Гбайт (76%)
Библиотека кодирования: x264 core 116 r2074 2641b9e
Настройки программы: cabac=1 / ref=4 / deblock=1:-1:-1 / analyse=0x3:0x113 / me=umh / subme=7 / psy=1 / psy_rd=1.00:0.00 / mixed_ref=1 / me_range=16 / chroma_me=1 / trellis=2 / 8x8dct=1 / cqm=0 / deadzone=21,11 / fast_pskip=1 / chroma_qp_offset=-2 / threads=1 / sliced_threads=0 / nr=0 / decimate=1 / interlaced=0 / bluray_compat=0 / constrained_intra=0 / bframes=3 / b_pyramid=0 / b_adapt=2 / b_bias=0 / direct=3 / weightb=1 / open_gop=0 / weightp=2 / keyint=250 / keyint_min=25 / scenecut=40 / intra_refresh=0 / rc_lookahead=40 / rc=2pass / mbtree=1 / bitrate=1569 / ratetol=1.0 / qcomp=0.60 / qpmin=10 / qpmax=51 / qpstep=4 / cplxblur=20.0 / qblur=0.5 / vbv_maxrate=50000 / vbv_bufsize=50000 / nal_hrd=none / ip_ratio=1.40 / aq=1:1.00
Язык: English

Аудио #1
Идентификатор: 2
Формат: AC-3
Формат/Информация: Audio Coding 3
Расширение режима: CM (complete main)
Идентификатор кодека: A_AC3
Продолжительность: 1 ч. 42 м.
Вид битрейта: Постоянный
Битрейт: 192 Кбит/сек
Каналы: 2 канала
Расположение каналов: Front: L R
Частота: 48,0 КГц
Битовая глубина: 16 бит
Метод сжатия: С потерями
Размер потока: 141 Мбайт (10%)
Заголовок: DVO

Аудио #2
Идентификатор: 3
Формат: MPEG Audio
Версия формата: Version 1
Профиль формата: Layer 3
Режим: Joint stereo
Расширение режима: MS Stereo
Идентификатор кодека: A_MPEG/L3
Идентификатор кодека/Подсказка: MP3
Продолжительность: 1 ч. 42 м.
Вид битрейта: Постоянный
Битрейт: 128 Кбит/сек
Каналы: 2 канала
Частота: 44,1 КГц
Метод сжатия: С потерями
Размер потока: 94,2 Мбайт (6%)
Заголовок: AVO

Аудио #3
Идентификатор: 4
Формат: MPEG Audio
Версия формата: Version 1
Профиль формата: Layer 3
Режим: Joint stereo
Расширение режима: MS Stereo
Идентификатор кодека: A_MPEG/L3
Идентификатор кодека/Подсказка: MP3
Продолжительность: 1 ч. 42 м.
Вид битрейта: Постоянный
Битрейт: 128 Кбит/сек
Каналы: 2 канала
Частота: 44,1 КГц
Метод сжатия: С потерями
Размер потока: 94,2 Мбайт (6%)
Заголовок: ENG

Текст
Идентификатор: 5
Формат: UTF-8
Идентификатор кодека: S_TEXT/UTF8
Идентификатор кодека/Информация: UTF-8 Plain Text


Поделиться:




реклама партнёра


Вернуться к началу
 Профиль Отправить личное сообщение  
 
   Похожие торренты   Автор   Торрент   Размер 
В этой теме нет новых непрочитанных сообщений. Генри и Джун / Henry & June [драма, биография, 1990] BDRemux 1080p, Mvo

salma3

19 | 6

35.07 ГБ

В этой теме нет новых непрочитанных сообщений. Генри и Джун / Henry and June [драма, биография, 1990] BDRip 720p, Mvo

salma3

0 | 0

7.11 ГБ

В этой теме нет новых непрочитанных сообщений. День рождения Генри Гэмбл / Henry Gamble's Birthday Party [драма, 2015] WEB-DLRip, Mvo

salma3

64 | 13

1.46 ГБ

В этой теме нет новых непрочитанных сообщений. Мир Генри Ориента / The World of Henry Orient [Фантастика, ужасы, 1964] HDTV1080i, Dvo [НТВ +]

salma3

12 | 3

4.3 ГБ

В этой теме нет новых непрочитанных сообщений. Братство / Brotherhood [S01-03] (Эдвард Бьянчи, Генри Бромелл, Ник Гомез) [2006-2008, Драма, WEB-DLRip, HDTVRip | FOX Crime]

Nickolas3435

4 | 106

14.67 ГБ

В этой теме нет новых непрочитанных сообщений. Волшебники / The Magicians [01x01-05 из 10] (Скотт Смит, Майк Кэхилл, Ян Элиасберг) [2015, ужасы, фэнтези, драма, детектив, HDTVRip | Jaskier]

Dracon

23 | 22

2.96 ГБ

В этой теме нет новых непрочитанных сообщений. Волшебники / The Magicians [01х01-05 из 13] (Скотт Смит, Майк Кэхилл, Ян Элиасберг) [2015, Детектив, Драма, Ужасы, Фэнтези, HDTVRip 720p | Jaskier]

Dracon

27 | 19

4.7 ГБ


Начать новую тему Ответить на тему  [ 1 сообщение ] 




Для Мосгорсуда, Роскомнадзора и рекламодателей:: mosgorsud-torrent[собачка]yandex.ru