Торрент файл
скачать торрент магнет ссылка Добавлен: 14 янв 2012, 21:37
Размер: 1.45 ГБ
Сидеров: 36
Личеров: 6
Автор

СообщениеДобавлено: 14 янв 2012, 21:37 

Не в сети
Супермодератор
Аватара пользователя
Дата регистрации:
11 апр 2010, 18:10
Спасибо: 5801 / 7
Сообщения: 56779
Один день / One Day


Перевод: Профессиональный (полное дублирование), cубтитры: отсутствуют
Формат: HDRip-AVC, MKV, H.264, AC3
Страна: США
Режиссер: Лоне Шерфиг
Жанр: драма, мелодрама
Продолжительность: 01:47:28
Год выпуска: 2011

В ролях: Энн Хэтэуэй, Джим Стёрджесс, Том Мисон, Джоди Уиттакер, Тим Ки, Рейф Сполл, Жозефин Де Ла Буме, Патришия Кларксон, Кен Стотт, Хейда Рид

Описание: Эмма — романтична, остра на язык и хочет изменить мир к лучшему. Декстер — плейбой, баловень судьбы и хочет, чтобы мир принадлежал ему.
Впервые Эм и Декс встретились 15 июля на выпускном в колледже и провели вместе только один день. А потом пришла ночь, и они…решили остаться друзьями. Они будут встречаться в тот же день через год, через два. Но сколько лет должно пройти, чтобы они поверили в свою любовь и поняли, как много значил для них этот ОДИН ДЕНЬ?




Видео: 848 x 360 (2:35:1), 23.976 fps, AVC (х264) High@L4.1, ~ 1552 Kbps, 0.212 bit/pixel
Аудио: 48 kHz, AC3 Dolby Digital, 3/2 (L,C,R,l,r) + LFE ch, ~384 kbps avg


Рип: jeenart

General
Unique ID: 221296793443695613942718238835133228215 (0xA67C364CC6A8FA039B0FE7D01E19A4B7)
Complete name: F:\Мои релизы\Все релизы 10\odin_den_[tfile.ru].mkv
Format: Matroska
File size: 1.45 GiB
Duration: 1h 47mn
Overall bit rate: 1 937 Kbps
Encoded date: UTC 2011-11-30 20:22:52
Writing application: mkvmerge v4.6.0 ('Still Crazy After All These Years') сборка от Apr1 2011 21:01:49
Writing library: libebml v1.2.0 + libmatroska v1.1.0

Video
ID: 1
Format: AVC
Format/Info: Advanced Video Codec
Format profile: High@L4.1
Format settings, CABAC: Yes
Format settings, ReFrames: 4 frames
Codec ID: V_MPEG4/ISO/AVC
Duration: 1h 47mn
Bit rate: 1 552 Kbps
Width: 848 pixels
Height: 360 pixels
Display aspect ratio: 2.35:1
Frame rate: 23.976 fps
Color space: YUV
Chroma subsampling: 4:2:0
Bit depth: 8 bits
Scan type: Progressive
Bits/(Pixel*Frame): 0.212
Stream size: 1.14 GiB (78%)
Writing library: x264 core 115 r1937 aa21558
Encoding settings: cabac=1 / ref=3 / deblock=1:-1:-1 / analyse=0x3:0x113 / me=hex / subme=7 / psy=1 / psy_rd=1.00:0.10 / mixed_ref=1 / me_range=16 / chroma_me=1 / trellis=1 / 8x8dct=1 / cqm=0 / deadzone=21,11 / fast_pskip=1 / chroma_qp_offset=-3 / threads=6 / sliced_threads=0 / nr=0 / decimate=1 / interlaced=0 / bluray_compat=0 / constrained_intra=0 / bframes=3 / b_pyramid=2 / b_adapt=1 / b_bias=0 / direct=3 / weightb=1 / open_gop=0 / weightp=2 / keyint=250 / keyint_min=23 / scenecut=40 / intra_refresh=0 / rc_lookahead=40 / rc=2pass / mbtree=1 / bitrate=1552 / ratetol=1.0 / qcomp=0.60 / qpmin=0 / qpmax=69 / qpstep=4 / cplxblur=20.0 / qblur=0.5 / ip_ratio=1.40 / aq=1:1.00

Audio
ID: 2
Format: AC-3
Format/Info: Audio Coding 3
Mode extension: CM (complete main)
Codec ID: A_AC3
Duration: 1h 47mn
Bit rate mode: Constant
Bit rate: 384 Kbps
Channel(s): 6 channels
Channel positions: Front: L C R, Side: L R, LFE
Sampling rate: 48.0 KHz
Bit depth: 16 bits
Compression mode: Lossy
Stream size: 295 MiB (20%)















Поделиться:




реклама партнёра


Вернуться к началу
 Профиль Отправить личное сообщение  
 
   Похожие торренты   Автор   Торрент   Размер 
В этой теме нет новых непрочитанных сообщений. Клуб бунтарей / The Riot Club (Лоне Шерфиг) [триллер, драма, 2014] HDRip, dvo

Dracon

6 | 3

1.37 ГБ

В этой теме нет новых непрочитанных сообщений. Клуб бунтарей / The Riot Club (Лоне Шерфиг) [триллер, драма, 2014] BDRip 720p, dvo

Dracon

4 | 3

5.98 ГБ

В этой теме нет новых непрочитанных сообщений. Один / 1 - Nenokkadine [Боевик, триллер, мелодрама, 2014] HDRip, Mvo+Sub

salma3

29 | 7

2.19 ГБ

В этой теме нет новых непрочитанных сообщений. Один на один / Il-dae-il (Ким Ки Дук) [Драма, 2014] WebRip, dvo

Dracon

2 | 0

1.37 ГБ

В этой теме нет новых непрочитанных сообщений. Один в один! Битва сезонов [01 сезон: 01-02 выпуски] [ТВ-шоу, 2016] SATRip

Dracon

0 | 0

4.17 ГБ

В этой теме нет новых непрочитанных сообщений. Один в один. Новогодний выпуск (Россия) [Тв-Шоу, 30/12/2015]SATRip

Dracon

4 | 0

1.61 ГБ

В этой теме нет новых непрочитанных сообщений. Один в один! Новогодний выпуск (Россия) [ТВ-шоу, 2015] HDTVRip

Dracon

102 | 10

1.66 ГБ


Начать новую тему Ответить на тему  [ 1 сообщение ] 




Для Мосгорсуда, Роскомнадзора и рекламодателей:: mosgorsud-torrent[собачка]yandex.ru