Торрент файл
скачать торрент магнет ссылка Добавлен: 14 янв 2012, 21:34
Размер: 2.18 ГБ
Сидеров: 64
Личеров: 8
Автор

СообщениеДобавлено: 14 янв 2012, 21:34 

Не в сети
Супермодератор
Аватара пользователя
Дата регистрации:
11 апр 2010, 18:10
Спасибо: 5802 / 7
Сообщения: 56779
Секс по дружбе / Friends with Benefits


Перевод: Профессиональный (полное дублирование)[лицензия]
Субтитры:отсутствуют
Формат: HDRip, MKV, H.264, AC3

Страна: США
Режиссер: Уилл Глак
Жанр: драма, мелодрама, комедия

Продолжительность: 01:49:25
Год выпуска: 2011

В ролях: Джастин Тимберлэйк, Мила Кунис, Патришия Кларксон, Дженна Элфмэн, Брайан Гринберг, Ричард Дженкинс, Вуди Харрельсон, Нолан Гоулд, Энди Сэмберг, Шон Уайт

Описание: Главная героиня — сотрудник кадрового агентства, которую преследуют фобии в отношениях с обязательствами. Однако, эти проблемы оказываются надуманными, после того как она встречает редактора глянцевого журнала. Он, в свою очередь, устал от женщин, которые мечтают вступить с ним в связь. Таким образом, созданы все условия для бурного романа и столкновения характеров и желаний.







Видео: 1280х536 (2.35:1), 23.976 fps, AVC(x264) High@L4.1 ~2474 Kbps, 0.15 bit/pixel
Аудио: 48 kHz, AC-3, 6 ch, 384 kbps

Релиз-Группа:

Рип от:TswetkOFF



General
Unique ID: 198393259026408587307410056027658693178 (0x954126DE7C302464A1FF7B90F866AA3A)
Complete name: D:\Films\sex_po_druzhbe_[tfile.ru].mkv
Format: Matroska
File size: 2.18 GiB
Duration: 1h 49mn
Overall bit rate: 2 857 Kbps
Encoded date: UTC 2011-12-11 04:45:51
Writing application: mkvmerge v4.6.0 ('Still Crazy After All These Years') сборка от Apr1 2011 21:01:49
Writing library: libebml v1.2.0 + libmatroska v1.1.0

Video
ID: 1
Format: AVC
Format/Info: Advanced Video Codec
Format profile: High@L4.1
Format settings, CABAC: Yes
Format settings, ReFrames: 4 frames
Codec ID: V_MPEG4/ISO/AVC
Duration: 1h 49mn
Bit rate: 2 474 Kbps
Width: 1 280 pixels
Height: 536 pixels
Display aspect ratio: 2.35:1
Frame rate: 23.976 fps
Color space: YUV
Chroma subsampling: 4:2:0
Bit depth: 8 bits
Scan type: Progressive
Bits/(Pixel*Frame): 0.150
Stream size: 1.85 GiB (85%)
Writing library: x264 core 115 r1937 aa21558
Encoding settings: cabac=1 / ref=3 / deblock=1:0:0 / analyse=0x3:0x113 / me=hex / subme=7 / psy=1 / psy_rd=1.00:0.00 / mixed_ref=1 / me_range=16 / chroma_me=1 / trellis=1 / 8x8dct=1 / cqm=0 / deadzone=21,11 / fast_pskip=1 / chroma_qp_offset=-2 / threads=3 / sliced_threads=0 / nr=0 / decimate=1 / interlaced=0 / bluray_compat=0 / constrained_intra=0 / bframes=3 / b_pyramid=2 / b_adapt=1 / b_bias=0 / direct=1 / weightb=1 / open_gop=0 / weightp=2 / keyint=250 / keyint_min=23 / scenecut=40 / intra_refresh=0 / rc_lookahead=40 / rc=2pass / mbtree=1 / bitrate=2474 / ratetol=1.0 / qcomp=0.60 / qpmin=0 / qpmax=69 / qpstep=4 / cplxblur=20.0 / qblur=0.5 / ip_ratio=1.40 / aq=1:1.00

Audio
ID: 2
Format: AC-3
Format/Info: Audio Coding 3
Mode extension: CM (complete main)
Codec ID: A_AC3
Duration: 1h 49mn
Bit rate mode: Constant
Bit rate: 384 Kbps
Channel(s): 6 channels
Channel positions: Front: L C R, Side: L R, LFE
Sampling rate: 48.0 KHz
Bit depth: 16 bits
Compression mode: Lossy
Stream size: 301 MiB (13%)














Поделиться:




реклама партнёра


Вернуться к началу
 Профиль Отправить личное сообщение  
 
   Похожие торренты   Автор   Торрент   Размер 
В этой теме нет новых непрочитанных сообщений. Энни / Annie (Уилл Глак) [мюзикл, драма, комедия, семейный, 2014] HDRip, Dub [iTunes]

Dracon

7 | 2

2.05 ГБ

В этой теме нет новых непрочитанных сообщений. Энни / Annie (Уилл Глак) [мюзикл, драма, комедия, семейный, 2014] HDRip, Dub [iTunes]

Dracon

2 | 2

1.37 ГБ

В этой теме нет новых непрочитанных сообщений. Энни / Annie (Уилл Глак) [мюзикл, драма, комедия, семейный, 2014] BDRip 720p, Dub+Sub

Dracon

0 | 0

6.63 ГБ

В этой теме нет новых непрочитанных сообщений. Энни / Annie (Уилл Глак) [мюзикл, драма, комедия, семейный, 2014] BDRemux 1080p, Dub+Sub

Dracon

0 | 0

23.74 ГБ

В этой теме нет новых непрочитанных сообщений. Энни / Annie (Уилл Глак) [мюзикл, драма, комедия, семейный, 2014] BDRip 1080p, Dub [iTunes]

Dracon

34 | 4

11.52 ГБ

В этой теме нет новых непрочитанных сообщений. Энни / Annie (Уилл Глак) [мюзикл, драма, комедия, семейный, 2014] BDRip 720p, Dub [iTunes]

Dracon

76 | 4

5.73 ГБ

В этой теме нет новых непрочитанных сообщений. Энни / Annie (Уилл Глак) [мюзикл, драма, комедия, семейный, 2014] BDRip 1080p, Dub+Sub [Лицензия]

Dracon

152 | 21

11.45 ГБ


Начать новую тему Ответить на тему  [ 1 сообщение ] 




Для Мосгорсуда, Роскомнадзора и рекламодателей:: mosgorsud-torrent[собачка]yandex.ru