Торрент файл
скачать торрент магнет ссылка Добавлен: 14 янв 2012, 21:29
Размер: 1.46 ГБ
Сидеров: 25
Личеров: 5
Автор

СообщениеДобавлено: 14 янв 2012, 21:29 

Не в сети
Супермодератор
Аватара пользователя
Дата регистрации:
11 апр 2010, 18:10
Спасибо: 5801 / 7
Сообщения: 56779
Незаконченная жизнь / An Unfinished Life

Перевод: Профессиональный (полное дублирование), cубтитры: отсутствуют
Формат: HDRip, AVI, XviD, AC3
Страна: США, Германия

Режиссер: Лассе Халльстрём
Жанр: драма

Продолжительность: 01:47:50
Год выпуска: 2005

В ролях: Роберт Редфорд, Дженнифер Лопез, Морган Фриман, Джош Лукас, Дамиан Льюис, Камрин Менхейм, Бекка Гарднер, Линда Бойд, Роб Хэйтер, П. Линн Джонсон

Описание: Эйнар Джилкисон, на протяжении последних десяти лет тяжело переживающий смерть своего единственного сына, совершенно запустил собственное ранчо и разрушил свой брак. Единственный человек, о котором Эйнар продолжает заботиться, - это его наемный работник и друг Митч, который был страшно искалечен медведем-гризли.
Утратив всякую связь с внешним миром, Эйнар собирается именно так провести остаток своей жизни. Но однажды к нему приезжает его невестка Джин, которую он винит в смерти сына. Джин тоже переживает далеко не лучший период в своей жизни: она разорена, находится в бегах, и у нее на руках девочка по имени Грифф, которая, по словам Джин, приходится внучкой Эйнару.
Спокойной жизни Эйнара приходит конец. Атмосфера накаляется, герои не могут удержаться от вспышек гнева и взаимных обвинений. Но в конце концов происходит чудо: интерес 11-летней Грифф к сельской жизни и ее давняя тоска по семье и отцу начинают постепенно растапливать лед, сковавший сердце Эйнара...




Видео: 720x304 (2.37:1), 23.976 fps, XviD build 50 ~1 486 kbps avg, 0.28 bit/pixel
Аудио: 48 kHz, AC3 Dolby Digital, 3/2 (L,C,R,l,r) + LFE ch, ~448.00 kbps avg

Скачать: >>>Сэмпл<<<

General
Complete name: D:\Фильмы\an_unfinished_life_[tfile.ru].avi
Format: AVI
Format/Info: Audio Video Interleave
File size: 1.46 GiB
Duration: 1h 47mn
Overall bit rate: 1 943 Kbps
Writing application: VirtualDubMod 1.5.10.3 | www.virtualdub-fr.org || (build 2550/release)
Writing library: VirtualDubMod build 2550/release

Video
ID: 0
Format: MPEG-4 Visual
Format profile: Advanced Simple@L5
Format settings, BVOP: Yes
Format settings, QPel: No
Format settings, GMC: No warppoints
Format settings, Matrix: Custom
Codec ID: XVID
Codec ID/Hint: XviD
Duration: 1h 47mn
Bit rate: 1 486 Kbps
Width: 720 pixels
Height: 304 pixels
Display aspect ratio: 2.35:1
Frame rate: 23.976 fps
Resolution: 8 bits
Colorimetry: 4:2:0
Scan type: Progressive
Bits/(Pixel*Frame): 0.283
Stream size: 1.12 GiB (76%)
Writing library: XviD 1.2.1 (UTC 2008-12-04)

Audio
ID: 1
Format: AC-3
Format/Info: Audio Coding 3
Codec ID: 2000
Duration: 1h 47mn
Bit rate mode: Constant
Bit rate: 448 Kbps
Channel(s): 6 channels
Channel positions: Front: L C R, Surround: L R, LFE
Sampling rate: 48.0 KHz
Stream size: 346 MiB (23%)
Alignment: Split accross interleaves
Interleave, duration: 42 ms (1.00 video frame)
Interleave, preload duration: 500 ms









Поделиться:




реклама партнёра


Вернуться к началу
 Профиль Отправить личное сообщение  
 
   Похожие торренты   Автор   Торрент   Размер 
В этой теме нет новых непрочитанных сообщений. Эта прекрасная жизнь / Жизнь прекрасна / Life Is Beautiful [Драма, мелодрама, 2012] HDRip, Mvo [Red Media]

salma3

1 | 2

1.46 ГБ

В этой теме нет новых непрочитанных сообщений. Жизнь / Life [Драма, биография, 2015] HDRip, dvo

Dracon

77 | 7

1.37 ГБ

В этой теме нет новых непрочитанных сообщений. Клубная жизнь / Club Life [драма, 2015] HDRip, Mvo

salma3

141 | 48

1.37 ГБ

В этой теме нет новых непрочитанных сообщений. Жизнь, что тогда была / Та жизнь / Antoki no Inochi / Life Back Then (Такахиса Дзэдзэ / Takahisa Zeze) [2011г., Япония, драма, DVDRip] Sub

Alfredovich

9 | 5

1.38 ГБ

В этой теме нет новых непрочитанных сообщений. Невероятная жизнь Уолтера Митти / The Secret Life of Walter Mitty [фэнтези, драма, комедия, приключения, 2013] HDRip, Dub [Лицензия]

Dracon

178 | 18

2.16 ГБ

В этой теме нет новых непрочитанных сообщений. Лифт: Три минуты могут изменить вашу жизнь / The Elevator: Three Minutes Can Change Your Life (Массимо Кольиторе) [драма, криминал, 2013] HDRip, dvo

Dracon

10 | 5

1.4 ГБ

В этой теме нет новых непрочитанных сообщений. Между делом / Unfinished Business (Кен Скотт) [Комедия, 2015] HDRip, Dub [iTunes]

Dracon

24 | 0

1.37 ГБ


Начать новую тему Ответить на тему  [ 1 сообщение ] 




Для Мосгорсуда, Роскомнадзора и рекламодателей:: mosgorsud-torrent[собачка]yandex.ru