Торрент файл
скачать торрент магнет ссылка Добавлен: 14 янв 2012, 21:29
Размер: 2.05 ГБ
Сидеров: 3
Личеров: 4
Автор

СообщениеДобавлено: 14 янв 2012, 21:29 

Не в сети
Супермодератор
Аватара пользователя
Дата регистрации:
11 апр 2010, 18:10
Спасибо: 5798 / 7
Сообщения: 56779
[b]Анонимные романтики / Les emotifs anonymes[/b]


Перевод: Профессиональный (многоголосый, закадровый)
Субтитры: отсутствуют
Формат: HDRip-AVC, AVI, XviD, AC3

Страна:Франция, Бельгия

Режиссер: Жан-Пьерр Амери
Жанр: мелодрама, комедия
Продолжительность: 01:14:47
Год выпуска: 2010

В ролях: Бенуа Пульворд, Изабелль Карре, Лорелла Кравотта, Lise Lametrie, Сванн Арло, Пьере Нинье, Стефан Войтович, Жак Буде, Алис Поль, Селин Дюамель.

Описание: Скромный кондитер Жан-Рене и его новая обаятельная сотрудница Анжелика — идеальная пара: они оба без ума от шоколада, романтичной музыки и парижских вечеров под развесистыми каштанами. Но оба — ужасно стеснительны, и ни один из них никак не решится сделать ответственный шаг навстречу зову сердца. Смогут ли предназначенные друг для друга возлюбленные преодолеть природную робость или так и суждено им в одиночестве посещать собрания Общества Анонимных Романтиков?



Видео: 1024x432 (2.35:1), 23.976 fps, AVC MPEG-4 High@L4.1 ~2996 kbps avg, 0.282 bit/pixel
Аудио #1: русский48 kHz, AC3 Dolby Digital, 3/2 (L,C,R,l,r) + LFE ch, ~384 kbps avg [Профессиональный (многоголосый, закадровый)]
Аудио #2: французкий48 kHz, AC3 Dolby Digital, 3/2 (L,C,R,l,r) + LFE ch, ~448 kbps avg [оригинал]

Релиз группы

Рип от: __


General
Unique ID: 176409895585419843783728124326348722194 (0x84B74F5EBE4B3D31962AE3550F121012)
Complete name: D:\Мои рипы\Anonimnye.romantiki.2010.P.HDRip.mkv
Format: Matroska
Format version: Version 2
File size: 2.05 GiB
Duration: 1h 17mn
Overall bit rate: 3 761 Kbps
Movie name: Les.emotifs.anonymes.S.I.D
Encoded date: UTC 2011-12-28 12:27:20
Writing application: mkvmerge v2.9.8 ('C'est le bon') built on Aug 13 2009 12:49:06
Writing library: libebml v0.7.7 + libmatroska v0.8.1

Video
ID: 1
Format: AVC
Format/Info: Advanced Video Codec
Format profile: High@L4.1
Format settings, CABAC: Yes
Format settings, ReFrames: 8 frames
Codec ID: V_MPEG4/ISO/AVC
Duration: 1h 17mn
Bit rate: 2 996 Kbps
Width: 1 024 pixels
Height: 432 pixels
Display aspect ratio: 2.35:1
Frame rate: 23.976 fps
Color space: YUV
Chroma subsampling: 4:2:0
Bit depth: 8 bits
Scan type: Progressive
Bits/(Pixel*Frame): 0.282
Stream size: 1.55 GiB (76%)
Writing library: x264 core 119 r2106 07efeb4
Encoding settings: cabac=1 / ref=8 / deblock=1:-1:-1 / analyse=0x3:0x111 / me=umh / subme=0 / psy=1 / psy_rd=1.00:0.10 / mixed_ref=1 / me_range=16 / chroma_me=1 / trellis=2 / 8x8dct=1 / cqm=0 / deadzone=21,11 / fast_pskip=0 / chroma_qp_offset=-1 / threads=6 / sliced_threads=0 / nr=0 / decimate=1 / interlaced=0 / bluray_compat=0 / constrained_intra=0 / bframes=8 / b_pyramid=2 / b_adapt=2 / b_bias=0 / direct=1 / weightb=1 / open_gop=0 / weightp=2 / keyint=250 / keyint_min=23 / scenecut=40 / intra_refresh=0 / rc_lookahead=50 / rc=abr / mbtree=1 / bitrate=2996 / ratetol=1.0 / qcomp=0.60 / qpmin=0 / qpmax=69 / qpstep=4 / ip_ratio=1.40 / aq=1:1.00
Language: French
Default: Yes
Forced: No

Audio #1
ID: 2
Format: AC-3
Format/Info: Audio Coding 3
Mode extension: CM (complete main)
Codec ID: A_AC3
Duration: 1h 17mn
Bit rate mode: Constant
Bit rate: 384 Kbps
Channel(s): 6 channels
Channel positions: Front: L C R, Side: L R, LFE
Sampling rate: 48.0 KHz
Bit depth: 16 bits
Compression mode: Lossy
Stream size: 214 MiB (10%)
Title: mnogogolosij
Language: Russian
Default: Yes
Forced: No

Audio #2
ID: 3
Format: AC-3
Format/Info: Audio Coding 3
Mode extension: CM (complete main)
Codec ID: A_AC3
Duration: 1h 17mn
Bit rate mode: Constant
Bit rate: 448 Kbps
Channel(s): 6 channels
Channel positions: Front: L C R, Side: L R, LFE
Sampling rate: 48.0 KHz
Bit depth: 16 bits
Compression mode: Lossy
Stream size: 250 MiB (12%)
Title: original
Language: French
Default: No
Forced: No








Поделиться:




реклама партнёра


Вернуться к началу
 Профиль Отправить личное сообщение  
 
   Похожие торренты   Автор   Торрент   Размер 
В этой теме нет новых непрочитанных сообщений. Романтики / The Romantics [драма, мелодрама, комедия, 2010] BDRip 1080p, Dvo+Sub

salma3

30 | 21

10.59 ГБ

В этой теме нет новых непрочитанных сообщений. Богатенький Буратино / Pilla Zamindar [комедия, мелодрама, 2011] HDRip, Avo

salma3

26 | 5

2.11 ГБ

В этой теме нет новых непрочитанных сообщений. «Старый» Новый год / New Year's Eve [комедия, мелодрама, 2011] HDRip, Dub [Лицензия]

salma3

163 | 6

1.37 ГБ

В этой теме нет новых непрочитанных сообщений. Помощник / Всегда готов! / Ready [боевик, комедия, мелодрама, 2011] HDRip, Mvo [SDI Media]

salma3

31 | 4

1.46 ГБ

В этой теме нет новых непрочитанных сообщений. Art Of Romance # 2 / Искусство Романтики #2 (Mason / Erotica X) (Callie Calypso, Jillian Janson, Holly Michaels, August Ames, Lily Love...) [2014 г., Couples, Romance, WEB-DL 1080p] (Split Scenes)

friizze

0 | 4

6.23 ГБ

В этой теме нет новых непрочитанных сообщений. Ки и Ка / Он и она / Ki & Ka [Мелодрама, комедия, 2016] HDRip, Mvo

salma3

380 | 34

1.45 ГБ

В этой теме нет новых непрочитанных сообщений. Дублер / La Doublure [комедия, мелодрама, 2006] HDRip, Dub

salma3

3 | 2

1.36 ГБ


Начать новую тему Ответить на тему  [ 1 сообщение ] 




Для Мосгорсуда, Роскомнадзора и рекламодателей:: mosgorsud-torrent[собачка]yandex.ru