Торрент файл
скачать торрент магнет ссылка Добавлен: 14 янв 2012, 21:27
Размер: 2.1 ГБ
Сидеров: 7
Личеров: 4
Автор

СообщениеДобавлено: 14 янв 2012, 21:27 

Не в сети
Супермодератор
Аватара пользователя
Дата регистрации:
11 апр 2010, 18:10
Спасибо: 5802 / 7
Сообщения: 56779
Черная Венера / Venus noire


Перевод: Авторский (Анна Мурадова), cубтитры: отсутствуют
Формат: HDRip-AVC, MKV, H.264, AC3
Страна: Франция, Бельгия
Режиссер: Абдел Кешиш
Жанр: драма, история
Продолжительность: 02:38:51
Год выпуска: 2010

В ролях: Яхима Торрес, Андре Джейкобс, Оливье Гурме, Элина Лёвензон, Франсуа Мартуре, Жан-Кристоф Буве, Джонатан Пиенаар, Реми Мартен, Жан-Жак Моро, Сирил Фавр

Описание: Картина посвящена драматичной судьбе Саарти Баартман - южноафриканки, получившей в Европе начала XIX столетия прозвище «готтентотской Венеры». Предприимчивый антрепренер вывез ее из Африки в Европу, где на протяжении нескольких лет выставлял рабыню в различных фрик-шоу, заставляя ее демонстрировать на людях огромные ягодицы - типичные для женщины койсанских народов и считающиеся на родине Баартман признаком красоты



Видео: 992 x 536 (1:85:1), 25.000 fps, AVC (х264) High@L4.1, ~ 1511 Kbps, 0.114 bit/pixel
Аудио: 48 kHz, AC3 Dolby Digital, 3/2 (L,C,R,l,r) + LFE ch, ~384 kbps avg


Рип: jeenart

General
Unique ID: 233542487147082437640166001922156510691 (0xAFB2A59D18393E5193F68A386D4BBDE3)
Complete name: F:\Мои релизы\Все релизы 10\chernaja_venera_[tfile.ru].mkv
Format: Matroska
File size: 2.10 GiB
Duration: 2h 38mn
Overall bit rate: 1 896 Kbps
Encoded date: UTC 2012-01-04 14:14:21
Writing application: mkvmerge v4.6.0 ('Still Crazy After All These Years') сборка от Apr1 2011 21:01:49
Writing library: libebml v1.2.0 + libmatroska v1.1.0

Video
ID: 1
Format: AVC
Format/Info: Advanced Video Codec
Format profile: High@L4.1
Format settings, CABAC: Yes
Format settings, ReFrames: 4 frames
Codec ID: V_MPEG4/ISO/AVC
Duration: 2h 38mn
Bit rate: 1 511 Kbps
Width: 992 pixels
Height: 536 pixels
Display aspect ratio: 1.851
Frame rate: 25.000 fps
Color space: YUV
Chroma subsampling: 4:2:0
Bit depth: 8 bits
Scan type: Progressive
Bits/(Pixel*Frame): 0.114
Stream size: 1.64 GiB (78%)
Writing library: x264 core 115 r1937 aa21558
Encoding settings: cabac=1 / ref=3 / deblock=1:-1:-1 / analyse=0x3:0x113 / me=hex / subme=7 / psy=1 / psy_rd=1.00:0.10 / mixed_ref=1 / me_range=16 / chroma_me=1 / trellis=1 / 8x8dct=1 / cqm=0 / deadzone=21,11 / fast_pskip=1 / chroma_qp_offset=-3 / threads=6 / sliced_threads=0 / nr=0 / decimate=1 / interlaced=0 / bluray_compat=0 / constrained_intra=0 / bframes=3 / b_pyramid=2 / b_adapt=1 / b_bias=0 / direct=3 / weightb=1 / open_gop=0 / weightp=2 / keyint=250 / keyint_min=25 / scenecut=40 / intra_refresh=0 / rc_lookahead=40 / rc=2pass / mbtree=1 / bitrate=1511 / ratetol=1.0 / qcomp=0.60 / qpmin=0 / qpmax=69 / qpstep=4 / cplxblur=20.0 / qblur=0.5 / ip_ratio=1.40 / aq=1:1.00

Audio
ID: 2
Format: AC-3
Format/Info: Audio Coding 3
Mode extension: CM (complete main)
Codec ID: A_AC3
Duration: 2h 38mn
Bit rate mode: Constant
Bit rate: 384 Kbps
Channel(s): 6 channels
Channel positions: Front: L C R, Side: L R, LFE
Sampling rate: 48.0 KHz
Bit depth: 16 bits
Compression mode: Lossy
Stream size: 436 MiB (20%)


















Поделиться:




реклама партнёра


Вернуться к началу
 Профиль Отправить личное сообщение  
 
   Похожие торренты   Автор   Торрент   Размер 
В этой теме нет новых непрочитанных сообщений. Венера в мехах / La Venus a la fourrure / Venus in Fur [драма, 2013] HDRip, dub [Чистый звук]

Dracon

615 | 10

1.37 ГБ

В этой теме нет новых непрочитанных сообщений. Венера в мехах / La Venus a la fourrure / Venus in Fur [драма, 2013] BDRip 720p, dub+Avo+sub

Dracon

119 | 11

5.2 ГБ

В этой теме нет новых непрочитанных сообщений. Венера в мехах / La Venus a la fourrure / Venus in Fur [драма, 2013] BDRip 720p, avo

Dracon

72 | 4

1.91 ГБ

В этой теме нет новых непрочитанных сообщений. Черная трасса / Piste noire [Криминал, 2009] HDTVRip, Mvo

salma3

146 | 11

1.38 ГБ

В этой теме нет новых непрочитанных сообщений. Peste Noire - Peste Noire [2013, Black Metal, MP3]

PriZraK

1 | 1

286.06 МБ

В этой теме нет новых непрочитанных сообщений. Чёрная гвоздика / The Black Pimpernel [Триллер, драма, история, 2007] DVDRip, Dvo

salma3

103 | 6

1.49 ГБ

В этой теме нет новых непрочитанных сообщений. Черная кошка [01-04 из 16] (история, криминал, 2016) WEB-DLRip от Kaztorrents | КПК

marya111

62 | 20

1.82 ГБ


Начать новую тему Ответить на тему  [ 1 сообщение ] 




Для Мосгорсуда, Роскомнадзора и рекламодателей:: mosgorsud-torrent[собачка]yandex.ru