Торрент файл
скачать торрент магнет ссылка Добавлен: 14 янв 2012, 21:25
Размер: 1.49 ГБ
Сидеров: 26
Личеров: 6
Автор

СообщениеДобавлено: 14 янв 2012, 21:25 

Не в сети
Супермодератор
Аватара пользователя
Дата регистрации:
11 апр 2010, 18:10
Спасибо: 5963 / 7
Сообщения: 56762
[b]Жизнь прекрасна / 50/50[/b]


Перевод: Любительский (одноголосый)
Субтитры: отсутствуют
Формат: HDRip-AVC, MKV, H.264, AC3

Страна:США

Режиссер: Джонатан Ливайн
Жанр: драма, комедия
Продолжительность: 01:40:03
Год выпуска: 2011

В ролях: Джозеф Гордон-Левитт, Сет Роген, Анна Кендрик, Брайс Даллас Ховард, Анджелика Хьюстон, Серж Уд, Эндрю Эйрли, Мэтт Фрюэр, Филип Бейкер Холл, Донна Ямамото.

Описание: Молодой преуспевающий журналист Адам готовится выпустить сенсационную статью о вулканах в Европе. Он не курит, не пьет, ведёт здоровый образ жизни, не водит машину потому что это опасно. Кроме того, у нашего героя есть всё для счастья: прекрасный дом, любимая девушка, хорошая работа. Но вот беда: наполеоновским планам помешали неожиданные боли в спине. После визита к врачу Адам узнает страшную правду: у него рак спинного мозга с редкой мутацией хромосом, не поддающейся лечению. Что делать? Как жить дальше? Как не сойти с ума? Можно ли выйти победителем в битве с медленной смертью?



Видео: 1024x432 (2.35:1), 23.976 fps, AVC MPEG-4 High@L4.1 ~1774 kbps avg, 0.167 bit/pixel
Аудио: 48 kHz, AC3 Dolby Digital, 3/2 (L,C,R,l,r) + LFE ch, ~384 kbps avg

Рип от: __


General
Unique ID: 170194208932768202213676945513064484110 (0x800A365B8DA12D0E97B9B31F16F4CD0E)
Complete name: D:\Мои рипы\Zhizn.prekrasna.2011.L1.HDRip.mkv
Format: Matroska
Format version: Version 2
File size: 1.49 GiB
Duration: 1h 40mn
Overall bit rate: 2 137 Kbps
Movie name: 50 / 50.S.I.D
Encoded date: UTC 2012-01-06 14:03:29
Writing application: mkvmerge v2.9.8 ('C'est le bon') built on Aug 13 2009 12:49:06
Writing library: libebml v0.7.7 + libmatroska v0.8.1

Video
ID: 1
Format: AVC
Format/Info: Advanced Video Codec
Format profile: High@L4.1
Format settings, CABAC: Yes
Format settings, ReFrames: 8 frames
Codec ID: V_MPEG4/ISO/AVC
Duration: 1h 40mn
Bit rate: 1 774 Kbps
Width: 1 024 pixels
Height: 432 pixels
Display aspect ratio: 2.35:1
Frame rate: 23.976 fps
Color space: YUV
Chroma subsampling: 4:2:0
Bit depth: 8 bits
Scan type: Progressive
Bits/(Pixel*Frame): 0.167
Stream size: 1.20 GiB (80%)
Title: RG Films Tfile
Writing library: x264 core 119 r2106 07efeb4
Encoding settings: cabac=1 / ref=8 / deblock=1:-1:-1 / analyse=0x3:0x111 / me=umh / subme=0 / psy=1 / psy_rd=1.00:0.10 / mixed_ref=1 / me_range=16 / chroma_me=1 / trellis=2 / 8x8dct=1 / cqm=0 / deadzone=21,11 / fast_pskip=0 / chroma_qp_offset=-1 / threads=6 / sliced_threads=0 / nr=0 / decimate=1 / interlaced=0 / bluray_compat=0 / constrained_intra=0 / bframes=5 / b_pyramid=2 / b_adapt=2 / b_bias=0 / direct=1 / weightb=1 / open_gop=0 / weightp=2 / keyint=250 / keyint_min=23 / scenecut=40 / intra_refresh=0 / rc_lookahead=40 / rc=abr / mbtree=1 / bitrate=1774 / ratetol=1.0 / qcomp=0.60 / qpmin=0 / qpmax=69 / qpstep=4 / ip_ratio=1.40 / aq=1:1.00
Language: English
Default: Yes
Forced: No

Audio
ID: 2
Format: AC-3
Format/Info: Audio Coding 3
Mode extension: CM (complete main)
Codec ID: A_AC3
Duration: 1h 40mn
Bit rate mode: Constant
Bit rate: 384 Kbps
Channel(s): 6 channels
Channel positions: Front: L C R, Side: L R, LFE
Sampling rate: 48.0 KHz
Bit depth: 16 bits
Compression mode: Lossy
Stream size: 275 MiB (18%)
Title: одноголосый
Language: Russian
Default: Yes
Forced: No








Поделиться:




реклама партнёра


Вернуться к началу
 Профиль Отправить личное сообщение  
 
   Похожие торренты   Автор   Торрент   Размер 
В этой теме нет новых непрочитанных сообщений. Жизнь прекрасна / Život je lep (Боро Драшкович / Boro Drašković) [1985г., Югославия, драма, DVDRip]avo

Alfredovich

0 | 0

1.37 ГБ

В этой теме нет новых непрочитанных сообщений. Рики и Флэш / Ricki and the Flash (Джонатан Демме) [2015, драма, комедия, музыка, HDRip | iTunes] Dub

Dracon

104 | 18

745.08 МБ

В этой теме нет новых непрочитанных сообщений. Остановившаяся жизнь / Still Life [драма, комедия, 2013] HDRip, Dvo

salma3

253 | 61

1.45 ГБ

В этой теме нет новых непрочитанных сообщений. Вторая жизнь Уве / En man som heter Ove [драма, комедия, 2015] HDRip, Dub [чистый звук]

salma3

2393 | 140

1.37 ГБ

В этой теме нет новых непрочитанных сообщений. У каждого своя жизнь и свой приговор / Chacun sa vie [комедия, драма, 2017] HDRip, Dvo

salma3

216 | 39

1.46 ГБ

В этой теме нет новых непрочитанных сообщений. Светская жизнь / Café Society ( Драма, мелодрама, комедия, 2016) HDRip от MegaPeer | Лицензия

marya111

270 | 39

744.67 МБ

В этой теме нет новых непрочитанных сообщений. Кутис / Cooties (Джонатан Милотт, Кэри Мернион) [ужасы, комедия, 2014] HDRip, Dub [iTunes]

Dracon

663 | 21

1.37 ГБ


Начать новую тему Ответить на тему  [ 1 сообщение ] 




Для Мосгорсуда, Роскомнадзора и рекламодателей:: mosgorsud-torrent[собачка]yandex.ru