Торрент файл
скачать торрент магнет ссылка Добавлен: 14 янв 2012, 21:12
Размер: 2.12 ГБ
Сидеров: 75
Личеров: 6
Автор

СообщениеДобавлено: 14 янв 2012, 21:12 

Не в сети
Супермодератор
Аватара пользователя
Дата регистрации:
11 апр 2010, 18:10
Спасибо: 5960 / 7
Сообщения: 56765
Танцующий с волками / Dances with Wolves



Перевод: Профессиональный (полное дублирование), cубтитры: отсутствуют
Формат: HDRip-AVC, MKV, H.264, AC3
Страна: США
Режиссер: Кевин Костнер
Жанр: драма, приключения, вестерн
Продолжительность: 03:53:49
Год выпуска: 1990

В ролях: Кевин Костнер, Мэри МакДоннел, Грэм Грин, Родни А. Грант, Флойд «Ред Кроу» Уэстермен, Танту Кардинал, Роберт Пасторелли, Чарльз Роккет, Мори Чайкин, Джимми Херман

Описание: Действие фильма происходит в 19-м веке, во время гражданской войны в США. Данбар оказывается в заброшенном форте в штате Дакота, где сначала заводит дружбу с волками, а затем и с индейцами, изучает их культуру и обычаи. Он влюбляется в девушку, правда, белую. Но вот приближается регулярная армия, и Данбару приходится делать решающий выбор.



Видео: 1072 x 456 (2.35:1), 23.976 fps, AVC, х264, High@L4.1, ~ 912 Kbps, 0.078 bit/pixel
Аудио: 48 kHz, AC3 Dolby Digital, 3/2 (L,C,R,l,r) + LFE ch, ~384 kbps


Рип: jeenart

Toп250: #149





Лейтенант Джон Данбар решил уйти от войны, от этой ненужной бойни на самый далекий блокпост. И встречает там индейцев, которые перевернули его представление о мире.

Сюжет этого фильма охватывает многие проблемы современности: одиночество, война, различие культур. И каждый человек сможет в нем найти ответ на свой интересующий вопрос.

Кевин Костнер сумел заинтриговать, и все 4 часа, что идет фильм пролетают просто незаметно. Остальные актеры тоже играют на высоте.

Музыка звучит просто завораживающая. А в сочетании с прекрасными пейзажами степи получается чуть не самое красивое кино в мире.

Впечатлений от этого фильма останется море. И то, что он идет практически 4 часа, только идет ему на пользу.

ОДИН ИЗ ШЕДЕВРОВ КИНЕМАТОГРАФА!!!
10 из 10

warrant
General
Unique ID: 248149581158072971857399876381558445571 (0xBAAFDEF38FA80E3494CB33C3CB801603)
Complete name: F:\Мои релизы\Все релизы 9\tancyuzhii_s_volkami_[tfile.ru].mkv
Format: Matroska
File size: 2.12 GiB
Duration: 3h 53mn
Overall bit rate: 1 298 Kbps
Encoded date: UTC 2011-06-23 12:45:11
Writing application: mkvmerge v4.6.0 ('Still Crazy After All These Years') сборка от Apr1 2011 21:01:49
Writing library: libebml v1.2.0 + libmatroska v1.1.0

Video
ID: 1
Format: AVC
Format/Info: Advanced Video Codec
Format profile: High@L4.1
Format settings, CABAC: Yes
Format settings, ReFrames: 3 frames
Codec ID: V_MPEG4/ISO/AVC
Duration: 3h 53mn
Bit rate: 912 Kbps
Width: 1 072 pixels
Height: 456 pixels
Display aspect ratio: 2.35:1
Frame rate: 23.976 fps
Color space: YUV
Chroma subsampling: 4:2:0
Bit depth: 8 bits
Scan type: Progressive
Bits/(Pixel*Frame): 0.078
Stream size: 1.45 GiB (68%)
Writing library: x264 core 115 r1937 aa21558
Encoding settings: cabac=1 / ref=3 / deblock=1:-1:-1 / analyse=0x3:0x113 / me=dia / subme=7 / psy=1 / psy_rd=1.00:0.10 / mixed_ref=1 / me_range=16 / chroma_me=1 / trellis=1 / 8x8dct=1 / cqm=0 / deadzone=21,11 / fast_pskip=1 / chroma_qp_offset=-3 / threads=6 / sliced_threads=0 / nr=0 / decimate=1 / interlaced=0 / bluray_compat=0 / constrained_intra=0 / bframes=1 / b_pyramid=0 / b_adapt=0 / b_bias=0 / direct=0 / weightb=1 / open_gop=0 / weightp=0 / keyint=250 / keyint_min=23 / scenecut=40 / intra_refresh=0 / rc_lookahead=40 / rc=2pass / mbtree=1 / bitrate=912 / ratetol=1.0 / qcomp=0.60 / qpmin=0 / qpmax=69 / qpstep=4 / cplxblur=20.0 / qblur=0.5 / ip_ratio=1.40 / aq=1:1.00

Audio
ID: 2
Format: AC-3
Format/Info: Audio Coding 3
Mode extension: CM (complete main)
Codec ID: A_AC3
Duration: 3h 53mn
Bit rate mode: Constant
Bit rate: 384 Kbps
Channel(s): 6 channels
Channel positions: Front: L C R, Side: L R, LFE
Sampling rate: 48.0 KHz
Bit depth: 16 bits
Compression mode: Lossy
Stream size: 642 MiB (30%)






















Поделиться:




реклама партнёра


Вернуться к началу
 Профиль Отправить личное сообщение  
 
   Похожие торренты   Автор   Торрент   Размер 
В этой теме нет новых непрочитанных сообщений. Танцующий с волками / Dances with Wolves [драма, приключения, вестерн, 1990] Blu-ray, Mvo+Avo+Sub

salma3

4 | 4

45 ГБ

В этой теме нет новых непрочитанных сообщений. Танцующий с волками / Dances with Wolves [драма, приключения, вестерн, 1990] BDRip-HEVC 1080p, Dub [Anniversary Edition]

salma3

33 | 27

12.21 ГБ

В этой теме нет новых непрочитанных сообщений. Танцующий с волками / Dances with Wolves [драма, приключения, вестерн, 1990] BDRip 1080p, Mvo [20th Anniversary Edition]

salma3

56 | 18

11.51 ГБ

В этой теме нет новых непрочитанных сообщений. Куигли в Австралии / Quigley Down Under [драма, мелодрама, приключения, вестерн, 1990] BDRip 720p, Mvo+Dvo+Avo+Sub

salma3

161 | 9

4.61 ГБ

В этой теме нет новых непрочитанных сообщений. Куигли в Австралии / Quigley Down Under [драма, мелодрама, приключения, вестерн, 1990] BDRip 1080p, Mvo+Dvo+Avo+Sub

salma3

27 | 5

12.99 ГБ

В этой теме нет новых непрочитанных сообщений. Танцующий в пустыне / Desert Dancer (Ричард Рэймонд) [Драма, биография, 2014] HDRip, dvo

Dracon

539 | 64

1.46 ГБ

В этой теме нет новых непрочитанных сообщений. Достоинство / The Timber [Драма, приключения, вестерн, 2015] HDRip, Mvo [Официальный звук]

salma3

516 | 88

1.37 ГБ


Начать новую тему Ответить на тему  [ 1 сообщение ] 




Для Мосгорсуда, Роскомнадзора и рекламодателей:: mosgorsud-torrent[собачка]yandex.ru