Торрент файл
скачать торрент магнет ссылка Добавлен: 14 янв 2012, 21:10
Размер: 1.37 ГБ
Сидеров: 48
Личеров: 9
Автор

СообщениеДобавлено: 14 янв 2012, 21:10 

Не в сети
Супермодератор
Аватара пользователя
Дата регистрации:
11 апр 2010, 18:10
Спасибо: 5798 / 7
Сообщения: 56779
Ровно в полдень / High Noon


Перевод: Профессиональный (многоголосый, закадровый), cубтитры: отсутствуют
Формат: DVDRip, AVI, XviD, AC3
Страна: США
Режиссер: Фред Циннеман
Жанр: драма, вестерн
Продолжительность: 01:24:47
Год выпуска: 1952
В ролях: Кэти Джурадо, Отто Крюгер, Лон Чэйни-младший, Хэрри Морган, Иан МакДоналд, Ив МакВиг, Ли Ван Клиф, Гэри Купер, Томас Митчелл, Шеб Вули, Грэйс Келли, Ллойд Бриджес, Боб Уилк

Описание: Только что поженившись, Уилл и его прекрасная блондинка-квакерша Эми собираются навсегда покинуть городок, намереваясь оставить в прошлом опасную работу и обзавестись собственным ранчо, чтобы пустить корни.

Однако, в городке узнают, что свирепый убийца Фрэнк Миллер должен очень скоро приехать в Хэдливиль и отомстить Уиллу и всему городу за то, что они засадили его в тюрьму несколько лет тому назад. Брат Миллера и еще два бандита-ганфайтера уже ждут поезд, на котором едет Миллер, а поезд должен прийти «ровно в полдень». В минуту паники, по совету друзей, Уилл покидает город вместе с невестой и скачет по дороге в открытые прерии, но внезапно останавливает коня.

Когда Эми справшивает его, почему он остановился, Уилл говорит, что он должен вернуться, что в этом его долг.




Видео: 592x448 (1.32:1), 23.976 fps, XviD build 47 ~2110 kbps avg, 0.33 bit/pixel
Аудио: 48 kHz, AC3 Dolby Digital, 2/0 (L,R) ch, ~192.00 kbps avg




Общее
Полное имя: E:\Ровно в полдень (High Noon) 1952 DVDrip.avi
Формат: AVI
Формат/Информация: Audio Video Interleave
Размер файла: 1,37 Гбайт
Продолжительность: 1 ч. 24 м.
Общий поток: 2309 Кбит/сек
Программа кодирования: VirtualDubMod 1.5.4.1 (build 2178/release)
Библиотека кодирования: VirtualDubMod build 2178/release

Видео
Идентификатор: 0
Формат: MPEG-4 Visual
Профиль формата: Advanced Simple@L5
Параметр BVOP формата: 1
Параметр QPel формата: Нет
Параметр GMC формата: Без точки перехода
Параметр матрицы формата: Выборочная
Идентификатор кодека: XVID
Идентификатор кодека/Подсказка: XviD
Продолжительность: 1 ч. 24 м.
Битрейт: 2111 Кбит/сек
Ширина: 592 пикс.
Высота: 448 пикс.
Соотношение сторон: 4:3
Частота кадров: 23,976 кадр/сек
Цветовое пространство: YUV
Подвыборка цветности: 4:2:0
Битовая глубина: 8 бит
Тип развёртки: Прогрессивная
Метод сжатия: С потерями
Бит/(Пиксели*Кадры): 0.332
Размер потока: 1,25 Гбайт (91%)
Библиотека кодирования: XviD 1.2.0.dev47 (UTC 2006-11-01)

Аудио
Идентификатор: 1
Формат: AC-3
Формат/Информация: Audio Coding 3
Расширение режима: CM (complete main)
Идентификатор кодека: 2000
Продолжительность: 1 ч. 24 м.
Вид битрейта: Постоянный
Битрейт: 192 Кбит/сек
Канал(ы): 2 канала(ов)
Расположение каналов: Front: L R
Частота: 48,0 КГц
Битовая глубина: 16 бит
Метод сжатия: С потерями
Размер потока: 116 Мбайт (8%)
Выравнивание: Разделение по промежуткам
Продолжительность промежутка: 96мс. (2,30 видеокадров)
Время предзагрузки промежутка: 96 ms
Язык: Russian

* На главную мужскую роль приглашались Грегори Пек, Чарлтон Хестон, Марлон Брандо и Монтгомери Клифт. В итоге Уилла Кейна сыграл Гэри Купер. Актёр страдал от кровоточащей язвы, болей в спине и бедре и даже не хотел сниматься в финальной перестрелке, но всё-таки отказался от дублёра.
* Грейс Келли, сыгравшая жену Кейна, была замечена режиссёром в небродвейской постановке.
* Фильм стал дебютной работой в кино актёра Ли Ван Клифа, хотя он в течение всего фильма не произносит ни одной реплики.
* Во время съёмок Карл Форман был внесен в Чёрный список Голливуда, и Крамер снял его имя с титров (хотя это не помешало тому, что Форман был номинирован на «Оскар»).
* Фред Циннеман боролся против колоризации фильма, но после его смерти она была совершена компанией Теда Тёрнера.





Поделиться:




реклама партнёра


Вернуться к началу
 Профиль Отправить личное сообщение  
 
   Похожие торренты   Автор   Торрент   Размер 
В этой теме нет новых непрочитанных сообщений. Жаркий полдень / High Noon [детектив, драма, криминал, 2009] DVDRip, Dvo

salma3

10 | 2

1.37 ГБ

В этой теме нет новых непрочитанных сообщений. Шанхайский полдень / Shanghai Noon [боевик, комедия, приключения, вестерн, 2000] BDRip-AVC, Dvo

salma3

12 | 3

2.19 ГБ

В этой теме нет новых непрочитанных сообщений. Шанхайский полдень / Shanghai Noon [Боевик, комедия, приключения, вестерн, 2000] Blu-Ray Remux 1080p, Mvo+Sub

salma3

28 | 42

22.5 ГБ

В этой теме нет новых непрочитанных сообщений. Шанхайский полдень / Shanghai Noon [Боевик, комедия, приключения, вестерн, 2000] BDRip, Avo [Гаврилов]

salma3

38 | 3

1.46 ГБ

В этой теме нет новых непрочитанных сообщений. Похороны в полдень / Funeral at Noon / Levaya Bazaharaim (Адам Сэндерсон / Adam Sanderson) [2013г., Израиль, драма, HDTVRip] Sub

Alfredovich

8 | 3

699.96 МБ

В этой теме нет новых непрочитанных сообщений. Бродяга высокогорных равнин / High Plains Drifter [Вестерн, 1973ъ BDRip 720p, 2Mvo+Avo+Sub

salma3

6 | 2

7.21 ГБ

В этой теме нет новых непрочитанных сообщений. Slutty Times At Innocent High 6 /Забавы Времен Невинного Состояния 6 (Innocent High) [2015 г., DVDRip]

max77777

1 | 0

1.47 ГБ


Начать новую тему Ответить на тему  [ 1 сообщение ] 




Для Мосгорсуда, Роскомнадзора и рекламодателей:: mosgorsud-torrent[собачка]yandex.ru