Торрент файл
скачать торрент магнет ссылка Добавлен: 14 янв 2012, 21:10
Размер: 1.45 ГБ
Сидеров: 27
Личеров: 9
Автор

СообщениеДобавлено: 14 янв 2012, 21:10 

Не в сети
Супермодератор
Аватара пользователя
Дата регистрации:
11 апр 2010, 18:10
Спасибо: 5799 / 7
Сообщения: 56779
Дикий, дикий Запад / Wild Wild West


Перевод: Профессиональный (полное дублирование), cубтитры: отсутствуют
Формат: HDRip-AVC, MKV, H.264, AC3
Страна: США
Режиссер: Барри Зонненфельд
Жанр: фантастика, боевик, комедия, вестерн
Продолжительность: 01:46:00
Год выпуска: 1999

В ролях: Уилл Смит, Кевин Клайн, Кеннет Брана, Сальма Хайек, М. Эммет Уолш, Тед Ливайн, Фредерик Ван Дер Вал, Мюзетта Вандер, София Энг, Линь Бай

Описание: Два суперагента 70-х годов позапрошлого века, располагающие технологическими штучками, спасают президента США Гранта от злодея-изобретателя Лавлэйса, ведущего борьбу за обладание южными штатами. Обозленный на весь мир, безногий калека при отсутствии детородного органа окружил себя целым гаремом красавиц, чем, вероятно, постоянно поддерживал в себе накал ненависти.
Один из суперагентов — лихой и обаятельный чернокожий стрелок Джим Уэст, а другой — Артемус Гордон, белый джентльмен с манерами англичанина. На их стороне и знойная красотка Рита, плененная гигантским механическим пауком.




Видео: 704 x 384 (1.85:1), 23.976 fps, AVC, х264, High@L4.1, ~ 1579 Kbps, 0.244 bit/pixel
Аудио: 48 kHz, AC3 Dolby Digital, 3/2 (L,C,R,l,r) + LFE ch, ~384 kbps


Рип: jeenart

General
Unique ID: 239849107268343941981207133692017325904 (0xB47141FE04BD9592876270EAF1093750)
Complete name: F:\Мои релизы\Все релизы 10\dikij_dikij_zapad_[tfile.ru].mkv
Format: Matroska
File size: 1.45 GiB
Duration: 1h 46mn
Overall bit rate: 1 965 Kbps
Encoded date: UTC 2011-07-19 06:27:21
Writing application: mkvmerge v4.6.0 ('Still Crazy After All These Years') сборка от Apr1 2011 21:01:49
Writing library: libebml v1.2.0 + libmatroska v1.1.0

Video
ID: 1
Format: AVC
Format/Info: Advanced Video Codec
Format profile: High@L4.1
Format settings, CABAC: Yes
Format settings, ReFrames: 8 frames
Codec ID: V_MPEG4/ISO/AVC
Duration: 1h 46mn
Bit rate: 1 579 Kbps
Width: 704 pixels
Height: 384 pixels
Display aspect ratio: 16:9
Frame rate: 23.976 fps
Color space: YUV
Chroma subsampling: 4:2:0
Bit depth: 8 bits
Scan type: Progressive
Bits/(Pixel*Frame): 0.244
Stream size: 1.14 GiB (78%)
Writing library: x264 core 115 r1937 aa21558
Encoding settings: cabac=1 / ref=8 / deblock=1:-1:-1 / analyse=0x3:0x133 / me=umh / subme=9 / psy=1 / psy_rd=1.00:0.10 / mixed_ref=1 / me_range=16 / chroma_me=1 / trellis=2 / 8x8dct=1 / cqm=0 / deadzone=21,11 / fast_pskip=1 / chroma_qp_offset=-3 / threads=6 / sliced_threads=0 / nr=0 / decimate=1 / interlaced=0 / bluray_compat=0 / constrained_intra=0 / bframes=3 / b_pyramid=2 / b_adapt=2 / b_bias=0 / direct=3 / weightb=1 / open_gop=0 / weightp=2 / keyint=250 / keyint_min=23 / scenecut=40 / intra_refresh=0 / rc_lookahead=60 / rc=2pass / mbtree=1 / bitrate=1579 / ratetol=1.0 / qcomp=0.60 / qpmin=0 / qpmax=69 / qpstep=4 / cplxblur=20.0 / qblur=0.5 / ip_ratio=1.40 / aq=1:1.00

Audio
ID: 2
Format: AC-3
Format/Info: Audio Coding 3
Mode extension: CM (complete main)
Codec ID: A_AC3
Duration: 1h 46mn
Bit rate mode: Constant
Bit rate: 384 Kbps
Channel(s): 6 channels
Channel positions: Front: L C R, Side: L R, LFE
Sampling rate: 48.0 KHz
Bit depth: 16 bits
Compression mode: Lossy
Stream size: 291 MiB (20%)





















Поделиться:




реклама партнёра


Вернуться к началу
 Профиль Отправить личное сообщение  
 
   Похожие торренты   Автор   Торрент   Размер 
В этой теме нет новых непрочитанных сообщений. Шериф Келли и Дикий Запад / / Sheriff Callie's Wild West / 1 сезон: 1-23 серий из 23 [мультфильм, 2013] SATRip, Dub

salma3

83 | 6

8.14 ГБ

В этой теме нет новых непрочитанных сообщений. Мой Дикий Запад / Il mio West [Комедия, вестерн, 1998] DVDRip, Mvo

salma3

7 | 4

1.37 ГБ

В этой теме нет новых непрочитанных сообщений. Дикий Билл / Wild Bill [Вестерн, Драма, Боевик, 1995] HDTVRip, Dvo+Avo

salma3

64 | 2

1.46 ГБ

В этой теме нет новых непрочитанных сообщений. Строго на запад / Медленный Запад / Slow West [Боевик, триллер, вестерн, 2015] HDRip, Dub [iTunes]

Dracon

197 | 4

1.37 ГБ

В этой теме нет новых непрочитанных сообщений. Дикий Нил / Wild Nile / серии 1-3 из 3 [документальный, 2014] LowHDTVRip, Dub

salma3

14 | 7

1.52 ГБ

В этой теме нет новых непрочитанных сообщений. Дикий Билл / Wild Bill [драма, 2011] BDRip 1080p, 3Avo+Sub

salma3

30 | 5

10.47 ГБ

В этой теме нет новых непрочитанных сообщений. Дикий вулкан / Wild Caribbean's Deadly Underworld [документальный, 2014] SATRip, Mvo

salma3

0 | 5

551.94 МБ


Начать новую тему Ответить на тему  [ 1 сообщение ] 




Для Мосгорсуда, Роскомнадзора и рекламодателей:: mosgorsud-torrent[собачка]yandex.ru