Торрент файл
скачать торрент магнет ссылка Добавлен: 14 янв 2012, 21:08
Размер: 2.1 ГБ
Сидеров: 101
Личеров: 6
Автор

СообщениеДобавлено: 14 янв 2012, 21:08 

Не в сети
Супермодератор
Аватара пользователя
Дата регистрации:
11 апр 2010, 18:10
Спасибо: 5963 / 7
Сообщения: 56762
Легенды осени / Legends of the Fall



Перевод: Профессиональный (полное дублирование),субтитры: отсутствуют
Формат: HDRip-AVC, MKV, H.264, AC3
Страна: США
Жанр: драма, мелодрама, вестерн, военный
Продолжительность: 02:12:00
Режиссер: Эдвард Цвик /Edward Zwick
Год выпуска: 1994

В ролях: Брэд Питт, Энтони Хопкинс, Эйдан Куинн, Джулия Ормонд ,Генри Томас, Карина Ломбард, Гордон Тутусис, Кристина Пиклз ,Пол Десмонд ,Танту Кардинал

Описание:«Некоторые люди очень ясно слышат свой внутренний голос, и живут так, как он им подсказывает. Такие люди сходят с ума. Или становятся легендами». Так начинается история семьи Ладлоу — стремительный и романтический рассказ о трех братьях, их отце и молодой и неотразимой женщине, которая роковым образом изменяет жизнь каждого из них.

С детства трое братьев неразлучны, однако они еще не подозревают, по какой тропе страстей и насилия поведет жизнь каждого из них.

Сквозь ужасы Первой Мировой, сквозь потерянные годы, последовавшие за войной, через любовь и потери, предательство и надежду. И в центре всегда оказывался недосягаемый, непредсказуемый Тристан..


________

Видео: 1280x 688 (1:86:0), 23,976 кадр/сек, AVC (х264),High@L4.0, ~1882Kbps, 0.089 bit/pixel
Аудио: 48 kHz, AC3 Dolby Digital, 3/2 (L,C,R,l,r) + LFE ch, ~384 kbps


Автор РИПа:ddimmon22
Общее
Уникальный идентификатор: 190705422955039079645387430114228924229 (0x8F788749536D73768474F04FCF3B6F45)
Полное имя: K:\РИПЫ\legends_of_the_fall_[tfile.ru].mkv
Формат: Matroska
Версия формата: Version 2
Размер файла: 2,10 Гбайт
Продолжительность: 2 ч. 12 м.
Общий поток: 2267 Кбит/сек
Дата кодирования: UTC 2011-09-21 11:00:44
Программа кодирования: mkvmerge v4.9.1 ('Ich will') сборка от Aug 10 2011 09:31:20
Библиотека кодирования: libebml v1.2.1 + libmatroska v1.2.0

Видео
Идентификатор: 1
Формат: AVC
Формат/Информация: Advanced Video Codec
Профиль формата: High@L4.0
Параметр CABAC формата: Да
Параметр ReFrames формата: 8 кадров
Идентификатор кодека: V_MPEG4/ISO/AVC
Продолжительность: 2 ч. 12 м.
Битрейт: 1882 Кбит/сек
Ширина: 1280 пикс.
Высота: 688 пикс.
Соотношение сторон: 1,860
Частота кадров: 23,976 кадр/сек
Цветовое пространство: YUV
Подвыборка цветности: 4:2:0
Битовая глубина: 8 бит
Тип развёртки: Прогрессивная
Бит/(Пиксели*Кадры): 0.089
Размер потока: 1,71 Гбайт (81%)
Библиотека кодирования: x264 core 116 r2074 2641b9e
Настройки программы: cabac=1 / ref=8 / deblock=1:-1:-1 / analyse=0x3:0x133 / me=umh / subme=7 / psy=1 / psy_rd=1.00:0.10 / mixed_ref=1 / me_range=16 / chroma_me=1 / trellis=2 / 8x8dct=1 / cqm=0 / deadzone=21,11 / fast_pskip=0 / chroma_qp_offset=-3 / threads=6 / sliced_threads=0 / nr=0 / decimate=1 / interlaced=0 / bluray_compat=0 / constrained_intra=0 / bframes=3 / b_pyramid=2 / b_adapt=2 / b_bias=0 / direct=3 / weightb=1 / open_gop=0 / weightp=2 / keyint=250 / keyint_min=23 / scenecut=40 / intra_refresh=0 / rc_lookahead=50 / rc=2pass / mbtree=1 / bitrate=1882 / ratetol=1.0 / qcomp=0.60 / qpmin=0 / qpmax=69 / qpstep=4 / cplxblur=20.0 / qblur=0.5 / ip_ratio=1.40 / aq=1:1.00

Аудио
Идентификатор: 2
Формат: AC-3
Формат/Информация: Audio Coding 3
Расширение режима: CM (complete main)
Идентификатор кодека: A_AC3
Продолжительность: 2 ч. 12 м.
Вид битрейта: Постоянный
Битрейт: 384 Кбит/сек
Каналы: 6 каналов
Расположение каналов: Front: L C R, Side: L R, LFE
Частота: 48,0 КГц
Битовая глубина: 16 бит
Метод сжатия: С потерями
Размер потока: 365 Мбайт (17%)










Поделиться:




реклама партнёра


Вернуться к началу
 Профиль Отправить личное сообщение  
 
   Похожие торренты   Автор   Торрент   Размер 
В этой теме нет новых непрочитанных сообщений. Легенды осени / Legends Of The Fall (Эдвард Цвик / Edward Zwick) [1994, США, драма, мелодрама, военный, HDTVRip 720p] DUB MVO Sub rus

marya111

0 | 0

7.72 ГБ

В этой теме нет новых непрочитанных сообщений. Легенды осени / Legends of the Fall [драма, мелодрама, вестерн, военный, 1994] HDRip, Dub

salma3

79 | 11

1.45 ГБ

В этой теме нет новых непрочитанных сообщений. Жертвуя пешкой / Pawn Sacrifice (Эдвард Цвик) [драма, биография, 2014] HDRip, Dub [Itunes]

Dracon

8359 | 355

1.45 ГБ

В этой теме нет новых непрочитанных сообщений. Жертвуя пешкой / Pawn Sacrifice (Эдвард Цвик) [драма, биография, 2014] HDRip, Dub [Itunes]

Dracon

1940 | 107

2.18 ГБ

В этой теме нет новых непрочитанных сообщений. Жертвуя пешкой / Pawn Sacrifice (Эдвард Цвик) [драма, биография, 2014] BDRip 720p, Dub [Itunes]

Dracon

3400 | 224

7.39 ГБ

В этой теме нет новых непрочитанных сообщений. Легенды / Legends [S02] (Дэвид Семел, Брэд Тернер, Джон Беринг) [2015, драма, криминал, WEB-DLRip | NewStudio]

Nickolas3434

190 | 89

5.3 ГБ

В этой теме нет новых непрочитанных сообщений. Легенды / Legends [02x01-10 из 10] (Дэвид Семел, Брэд Тернер, Джон Беринг) [2015, драма, криминал, WEB-DL 1080p | BaibaKo]

Nickolas3435

11 | 14

16.99 ГБ


Начать новую тему Ответить на тему  [ 1 сообщение ] 




Для Мосгорсуда, Роскомнадзора и рекламодателей:: mosgorsud-torrent[собачка]yandex.ru